(Classical) Gyorgy Ligeti edition: CD 2. A Cappella Choral Works (Terry Edwards, London Sinfonietta Voices, Terry Edwards) - 1998, FLAC (tracks+.cue) lossless


Статистика раздачи [Обновить пиров]
Размер:  251 MB   |    Зарегистрирован:  8 месяцев 18 дней   |    Скачан:  0 раз

Полного источника не было: Никогда

 
   
 
 
 

[Цитировать]

Gyorgy Ligeti edition: CD 2. A Cappella Choral Works
Жанр: Classical
Год издания диска: 1998
Издатель (лейбл): Sony Classical
Номер по каталогу: 62309
Аудиокодек: FLAC
Тип рипа: tracks+.cue
Битрейт аудио: lossless
Продолжительность: 68’49
Источник: скачано из сети
Наличие сканов в содержимом раздачи: да
Треклист:
01. Éjszaka
02. Reggel
Idegen földön:
03. I. Siralmas nékem (Lament)
04. II. Egy fekete holló
05. III. Vissza ne nézz
06. IV. Fujdogál a nyári szél
07. Magány
Zwei Kanons:
08. I. Ha folyóvíz volnék
09. II. Pletykázó asszonyok
10. Betlehemi királyok
11. Bujdosó
12. Lux Aeterna
13. Lakodalmas
Inaktelki nóták:
14. I. Moderato
15. II. Allegro
16. III. Parlando
17. IV. Allegro
Mátraszentimrei Dalok:
18. I. Három hordó
19. II. Igaz szerelem
20. III. Gomb, gomb
21. IV. Erdöbe, erdöbe
22. Pápainé
Drei Phantasien:
23. I. Hälfte des Lebens
24. II. Wenn aus der Ferne
25. III. Abenphantasie
Magyar Etüdök:
26. I. Spiegelkanon (Nr. 9)
27. II. (Nr. 49 + 40)
28. III. Vásár (Nr. 90)
Haj, ifjúság:
29. Parlando
30. Allegro
31. Húsvét
Hortobágy:
32. Parlando (rubato)
33. Allegro giusto
34. Piu mosso
35. Magos kösziklának
Kállal kettös:
36. Andante
37. Allegro molto
Исполнители:
Terry Edwards;
London Sinfonietta Voices.
Conductor: Terry Edwards

LOG EAC:

X Lossless Decoder version 20130407 (143.0)
XLD extraction logfile from 2013-04-07 19:17:31 -0600
Various Artists / György Ligeti Edition Edition 4: Vocal Works
Used drive : HL-DT-ST DVDRW GS31N (revision TA17)
Media type : Pressed CD
Ripper mode : XLD Secure Ripper
Disable audio cache : OK for the drive with a cache less than 1375KiB
Make use of C2 pointers : NO
Read offset correction : 667
Max retry count : 100
Gap status : Analyzed, Appended (except HTOA)
TOC of the extracted CD
Track | Start | Length | Start sector | End sector
---------------------------------------------------------
1 | 00:00:00 | 02:15:00 | 0 | 10124
2 | 02:15:00 | 01:33:65 | 10125 | 17164
3 | 03:48:65 | 03:33:15 | 17165 | 33154
4 | 07:22:05 | 02:43:22 | 33155 | 45401
5 | 10:05:27 | 01:50:55 | 45402 | 53706
6 | 11:56:07 | 01:35:60 | 53707 | 60891
7 | 13:31:67 | 07:56:43 | 60892 | 96634
8 | 21:28:35 | 11:20:32 | 96635 | 147666
9 | 32:48:67 | 05:53:58 | 147667 | 174199
10 | 38:42:50 | 04:50:57 | 174200 | 196006
11 | 43:33:32 | 03:19:08 | 196007 | 210939
12 | 46:52:40 | 01:05:45 | 210940 | 215859
13 | 47:58:10 | 02:42:30 | 215860 | 228039
14 | 50:40:40 | 02:11:12 | 228040 | 237876
15 | 52:51:52 | 02:01:70 | 237877 | 247021
16 | 54:53:47 | 02:28:45 | 247022 | 258166
17 | 57:22:17 | 00:52:08 | 258167 | 262074
18 | 58:14:25 | 03:15:60 | 262075 | 276759
19 | 61:30:10 | 02:15:30 | 276760 | 286914
20 | 63:45:40 | 02:04:30 | 286915 | 296244
21 | 65:49:70 | 00:40:12 | 296245 | 299256
22 | 66:30:07 | 01:16:35 | 299257 | 304991
23 | 67:46:42 | 01:13:25 | 304992 | 310491
List of alternate offset correction values
# | Absolute | Relative | Confidence
------------------------------------------
1 | 1168 | 501 | 10
2 | 540 | -127 | 9
AccurateRip Summary (DiscID: 0041261d-04355865-51102b17)
Track 01 : OK (v1, confidence 7/25)
Track 02 : OK (v1, confidence 7/26)
Track 03 : OK (v1, confidence 7/26)
Track 04 : OK (v1, confidence 7/26)
Track 05 : OK (v1, confidence 7/26)
Track 06 : OK (v1, confidence 7/26)
Track 07 : OK (v1, confidence 7/26)
Track 08 : OK (v1, confidence 7/26)
Track 09 : OK (v1, confidence 7/25)
Track 10 : OK (v1, confidence 7/26)
Track 11 : OK (v1, confidence 7/26)
Track 12 : OK (v1, confidence 7/26)
Track 13 : OK (v1, confidence 7/26)
Track 14 : OK (v1, confidence 7/26)
Track 15 : OK (v1, confidence 7/26)
Track 16 : OK (v1, confidence 7/26)
Track 17 : OK (v1, confidence 7/26)
Track 18 : OK (v1, confidence 7/26)
Track 19 : OK (v1, confidence 7/25)
Track 20 : OK (v1, confidence 7/24)
Track 21 : OK (v1, confidence 7/26)
Track 22 : OK (v1, confidence 7/26)
Track 23 : OK (v1, confidence 7/26)
->All tracks accurately ripped.
All Tracks
Album gain : 4.79 dB
Peak : 1.000000
Statistics
Read error : 0
Jitter error (maybe fixed) : 0
Retry sector count : 0
Damaged sector count : 0
Track 01
Filename : /Volumes/Torrent and CD Archive/Torrents/Various Artists - György Ligeti Edition Edition 4- Vocal Works (1996) FLAC/01 The King's Singers - Nonsense Madrigals: I. Two Dreams and Little Bat.flac
Pre-gap length : 00:02:00
Track gain : 5.46 dB
Peak : 0.649475
CRC32 hash (test run) : 55601C16
CRC32 hash : 55601C16
CRC32 hash (skip zero) : CF1B302B
AccurateRip v1 signature : 3F3B35E4
AccurateRip v2 signature : D6A9E831
->Accurately ripped (v1, confidence 7/25)
Statistics
Read error : 0
Jitter error (maybe fixed) : 0
Retry sector count : 0
Damaged sector count : 0
Track 02
Filename : /Volumes/Torrent and CD Archive/Torrents/Various Artists - György Ligeti Edition Edition 4- Vocal Works (1996) FLAC/02 The King's Singers - Nonsense Madrigals: II. Cuckoo in the Pear-Tree.flac
Track gain : 5.51 dB
Peak : 0.483673
CRC32 hash (test run) : 1604B218
CRC32 hash : 1604B218
CRC32 hash (skip zero) : D4786BFD
AccurateRip v1 signature : F65C5847
AccurateRip v2 signature : 74A8EE73
->Accurately ripped (v1, confidence 7/26)
Statistics
Read error : 0
Jitter error (maybe fixed) : 0
Retry sector count : 0
Damaged sector count : 0
Track 03
Filename : /Volumes/Torrent and CD Archive/Torrents/Various Artists - György Ligeti Edition Edition 4- Vocal Works (1996) FLAC/03 The King's Singers - Nonsense Madrigals: III. The Alphabet.flac
Track gain : 0.99 dB
Peak : 0.725983
CRC32 hash (test run) : 5B802B9A
CRC32 hash : 5B802B9A
CRC32 hash (skip zero) : 0E7BB14E
AccurateRip v1 signature : 592A4250
AccurateRip v2 signature : 868DF129
->Accurately ripped (v1, confidence 7/26)
Statistics
Read error : 0
Jitter error (maybe fixed) : 0
Retry sector count : 0
Damaged sector count : 0
Track 04
Filename : /Volumes/Torrent and CD Archive/Torrents/Various Artists - György Ligeti Edition Edition 4- Vocal Works (1996) FLAC/04 The King's Singers - Nonsense Madrigals: IV. flying Robert.flac
Track gain : 4.64 dB
Peak : 0.723694
CRC32 hash (test run) : 6E875376
CRC32 hash : 6E875376
CRC32 hash (skip zero) : 8A93EDE5
AccurateRip v1 signature : AA0F79AC
AccurateRip v2 signature : A0A15AFB
->Accurately ripped (v1, confidence 7/26)
Statistics
Read error : 0
Jitter error (maybe fixed) : 0
Retry sector count : 0
Damaged sector count : 0
Track 05
Filename : /Volumes/Torrent and CD Archive/Torrents/Various Artists - György Ligeti Edition Edition 4- Vocal Works (1996) FLAC/05 The King's Singers - Nonsense Madrigals: V. The Lobster Quadrille.flac
Track gain : 3.49 dB
Peak : 0.660095
CRC32 hash (test run) : 6807E771
CRC32 hash : 6807E771
CRC32 hash (skip zero) : 23C47445
AccurateRip v1 signature : A06D5D9C
AccurateRip v2 signature : 80EF83FD
->Accurately ripped (v1, confidence 7/26)
Statistics
Read error : 0
Jitter error (maybe fixed) : 0
Retry sector count : 0
Damaged sector count : 0
Track 06
Filename : /Volumes/Torrent and CD Archive/Torrents/Various Artists - György Ligeti Edition Edition 4- Vocal Works (1996) FLAC/06 The King's Singers - Nonsense Madrigals: VI. A Long, Sad Tale.flac
Track gain : 3.18 dB
Peak : 0.734436
CRC32 hash (test run) : AE6573AF
CRC32 hash : AE6573AF
CRC32 hash (skip zero) : A72AF4B9
AccurateRip v1 signature : 9606F3FB
AccurateRip v2 signature : 26B9743E
->Accurately ripped (v1, confidence 7/26)
Statistics
Read error : 0
Jitter error (maybe fixed) : 0
Retry sector count : 0
Damaged sector count : 0
Track 07
Filename : /Volumes/Torrent and CD Archive/Torrents/Various Artists - György Ligeti Edition Edition 4- Vocal Works (1996) FLAC/07 Sibylle Ehlert - Mysteries of the Macabre.flac
Pre-gap length : 00:07:30
Track gain : 2.85 dB
Peak : 0.966125
CRC32 hash (test run) : 617A2B56
CRC32 hash : 617A2B56
CRC32 hash (skip zero) : 73287566
AccurateRip v1 signature : A4387CEA
AccurateRip v2 signature : 3B029274
->Accurately ripped (v1, confidence 7/26)
Statistics
Read error : 0
Jitter error (maybe fixed) : 0
Retry sector count : 0
Damaged sector count : 0
Track 08
Filename : /Volumes/Torrent and CD Archive/Torrents/Various Artists - György Ligeti Edition Edition 4- Vocal Works (1996) FLAC/08 Phyllis Bryn-Julson, Rose Taylor, Omar Ebrahim - Aventures.flac
Pre-gap length : 00:07:05
Track gain : 5.10 dB
Peak : 0.966064
CRC32 hash (test run) : 9F973D3E
CRC32 hash : 9F973D3E
CRC32 hash (skip zero) : 868A6615
AccurateRip v1 signature : 536645C9
AccurateRip v2 signature : 4D185045
->Accurately ripped (v1, confidence 7/26)
Statistics
Read error : 0
Jitter error (maybe fixed) : 0
Retry sector count : 0
Damaged sector count : 0
Track 09
Filename : /Volumes/Torrent and CD Archive/Torrents/Various Artists - György Ligeti Edition Edition 4- Vocal Works (1996) FLAC/09 Phyllis Bryn-Julson, Rose Taylor, Omar Ebrahim - Nouvelles Aventures: I. Sostenuto.flac
Track gain : 9.19 dB
Peak : 0.986450
CRC32 hash (test run) : B113AE63
CRC32 hash : B113AE63
CRC32 hash (skip zero) : 7179DCE6
AccurateRip v1 signature : A005EE0F
AccurateRip v2 signature : 3284EF38
->Accurately ripped (v1, confidence 7/25)
Statistics
Read error : 0
Jitter error (maybe fixed) : 0
Retry sector count : 0
Damaged sector count : 0
Track 10
Filename : /Volumes/Torrent and CD Archive/Torrents/Various Artists - György Ligeti Edition Edition 4- Vocal Works (1996) FLAC/10 Phyllis Bryn-Julson, Rose Taylor, Omar Ebrahim - Nouvelles Aventures: II. Agitato molto.flac
Track gain : 5.40 dB
Peak : 1.000000
CRC32 hash (test run) : 4102F266
CRC32 hash : 4102F266
CRC32 hash (skip zero) : F6A2B387
AccurateRip v1 signature : D5F5CADF
AccurateRip v2 signature : F4CDC3B6
->Accurately ripped (v1, confidence 7/26)
Statistics
Read error : 0
Jitter error (maybe fixed) : 0
Retry sector count : 0
Damaged sector count : 0
Track 11
Filename : /Volumes/Torrent and CD Archive/Torrents/Various Artists - György Ligeti Edition Edition 4- Vocal Works (1996) FLAC/11 Christiane Oelze - Der Sommer.flac
Pre-gap length : 00:10:65
Track gain : 6.16 dB
Peak : 0.486237
CRC32 hash (test run) : 7B5FDCAD
CRC32 hash : 7B5FDCAD
CRC32 hash (skip zero) : 5B4CAB8E
AccurateRip v1 signature : 97DA1305
AccurateRip v2 signature : 8EA8F52B
->Accurately ripped (v1, confidence 7/26)
Statistics
Read error : 0
Jitter error (maybe fixed) : 0
Retry sector count : 0
Damaged sector count : 0
Track 12
Filename : /Volumes/Torrent and CD Archive/Torrents/Various Artists - György Ligeti Edition Edition 4- Vocal Works (1996) FLAC/12 Rosemary Hardy - Három Weöres-dal: I. Táncol a Hold fehér ingben.flac
Pre-gap length : 00:07:10
Track gain : 7.73 dB
Peak : 0.590027
CRC32 hash (test run) : ED6FF10C
CRC32 hash : ED6FF10C
CRC32 hash (skip zero) : A218C9AD
AccurateRip v1 signature : 4F76737F
AccurateRip v2 signature : F3934987
->Accurately ripped (v1, confidence 7/26)
Statistics
Read error : 0
Jitter error (maybe fixed) : 0
Retry sector count : 0
Damaged sector count : 0
Track 13
Filename : /Volumes/Torrent and CD Archive/Torrents/Various Artists - György Ligeti Edition Edition 4- Vocal Works (1996) FLAC/13 Rosemary Hardy - Három Weöres-dal: II. Gyümölcs-fürt.flac
Track gain : 14.42 dB
Peak : 0.216522
CRC32 hash (test run) : CAE0C5D9
CRC32 hash : CAE0C5D9
CRC32 hash (skip zero) : 03D80E35
AccurateRip v1 signature : 2DD411B2
AccurateRip v2 signature : D5FF22E6
->Accurately ripped (v1, confidence 7/26)
Statistics
Read error : 0
Jitter error (maybe fixed) : 0
Retry sector count : 0
Damaged sector count : 0
Track 14
Filename : /Volumes/Torrent and CD Archive/Torrents/Various Artists - György Ligeti Edition Edition 4- Vocal Works (1996) FLAC/14 Rosemary Hardy - Három Weöres-dal: III. Kalmár jött nagy madarakkal.flac
Track gain : 1.82 dB
Peak : 0.903320
CRC32 hash (test run) : F42FC84F
CRC32 hash : F42FC84F
CRC32 hash (skip zero) : 3AAAD555
AccurateRip v1 signature : C591ED72
AccurateRip v2 signature : 1FC1A214
->Accurately ripped (v1, confidence 7/26)
Statistics
Read error : 0
Jitter error (maybe fixed) : 0
Retry sector count : 0
Damaged sector count : 0
Track 15
Filename : /Volumes/Torrent and CD Archive/Torrents/Various Artists - György Ligeti Edition Edition 4- Vocal Works (1996) FLAC/15 Rosemary Hardy - Öt Arany-dal: I. Csalfa sugár.flac
Pre-gap length : 00:00:05
Track gain : 14.41 dB
Peak : 0.165100
CRC32 hash (test run) : 68654E1D
CRC32 hash : 68654E1D
CRC32 hash (skip zero) : ACA4D0B4
AccurateRip v1 signature : 12F3D6A3
AccurateRip v2 signature : 7911D1E1
->Accurately ripped (v1, confidence 7/26)
Statistics
Read error : 0
Jitter error (maybe fixed) : 0
Retry sector count : 0
Damaged sector count : 0
Track 16
Filename : /Volumes/Torrent and CD Archive/Torrents/Various Artists - György Ligeti Edition Edition 4- Vocal Works (1996) FLAC/16 Rosemary Hardy - Öt Arany-dal: II. A legszebb virág.flac
Track gain : 5.97 dB
Peak : 0.584351
CRC32 hash (test run) : D00F09C0
CRC32 hash : D00F09C0
CRC32 hash (skip zero) : 058F1D71
AccurateRip v1 signature : DC148226
AccurateRip v2 signature : 8279C224
->Accurately ripped (v1, confidence 7/26)
Statistics
Read error : 0
Jitter error (maybe fixed) : 0
Retry sector count : 0
Damaged sector count : 0
Track 17
Filename : /Volumes/Torrent and CD Archive/Torrents/Various Artists - György Ligeti Edition Edition 4- Vocal Works (1996) FLAC/17 Rosemary Hardy - Öt Arany-dal: III. A csendes dalokból.flac
Track gain : 2.36 dB
Peak : 0.467285
CRC32 hash (test run) : 9CF3307A
CRC32 hash : 9CF3307A
CRC32 hash (skip zero) : 369CE958
AccurateRip v1 signature : 83E3163A
AccurateRip v2 signature : F884C94C
->Accurately ripped (v1, confidence 7/26)
Statistics
Read error : 0
Jitter error (maybe fixed) : 0
Retry sector count : 0
Damaged sector count : 0
Track 18
Filename : /Volumes/Torrent and CD Archive/Torrents/Various Artists - György Ligeti Edition Edition 4- Vocal Works (1996) FLAC/18 Rosemary Hardy - Öt Arany-dal: IV. A bujdosó.flac
Track gain : 13.03 dB
Peak : 0.331848
CRC32 hash (test run) : A878D545
CRC32 hash : A878D545
CRC32 hash (skip zero) : 90AA086D
AccurateRip v1 signature : F5A6338B
AccurateRip v2 signature : 5F5BE808
->Accurately ripped (v1, confidence 7/26)
Statistics
Read error : 0
Jitter error (maybe fixed) : 0
Retry sector count : 0
Damaged sector count : 0
Track 19
Filename : /Volumes/Torrent and CD Archive/Torrents/Various Artists - György Ligeti Edition Edition 4- Vocal Works (1996) FLAC/19 Rosemary Hardy - Öt Arany-dal: V. Az ördög elvitte a fináncot.flac
Track gain : 2.25 dB
Peak : 0.574799
CRC32 hash (test run) : 5035CFDE
CRC32 hash : 5035CFDE
CRC32 hash (skip zero) : F947AFFF
AccurateRip v1 signature : 75D0EB7E
AccurateRip v2 signature : 939B365C
->Accurately ripped (v1, confidence 7/25)
Statistics
Read error : 0
Jitter error (maybe fixed) : 0
Retry sector count : 0
Damaged sector count : 0
Track 20
Filename : /Volumes/Torrent and CD Archive/Torrents/Various Artists - György Ligeti Edition Edition 4- Vocal Works (1996) FLAC/20 Rosemary Hardy, Eva Wedin - Négy lakodalmi tánc: I. A menyasszony szép virág.flac
Pre-gap length : 00:06:10
Track gain : 7.97 dB
Peak : 0.296295
CRC32 hash (test run) : A6ECB7A4
CRC32 hash : A6ECB7A4
CRC32 hash (skip zero) : 0F0E220B
AccurateRip v1 signature : E672C11C
AccurateRip v2 signature : 5D8FCC9D
->Accurately ripped (v1, confidence 7/24)
Statistics
Read error : 0
Jitter error (maybe fixed) : 0
Retry sector count : 0
Damaged sector count : 0
Track 21
Filename : /Volumes/Torrent and CD Archive/Torrents/Various Artists - György Ligeti Edition Edition 4- Vocal Works (1996) FLAC/21 Rosemary Hardy, Eva Wedin - Négy lakodalmi tánc: II. A kapuban a szekér.flac
Track gain : 2.64 dB
Peak : 0.571259
CRC32 hash (test run) : 9E80013F
CRC32 hash : 9E80013F
CRC32 hash (skip zero) : C29F3462
AccurateRip v1 signature : 890F5093
AccurateRip v2 signature : 30592662
->Accurately ripped (v1, confidence 7/26)
Statistics
Read error : 0
Jitter error (maybe fixed) : 0
Retry sector count : 0
Damaged sector count : 0
Track 22
Filename : /Volumes/Torrent and CD Archive/Torrents/Various Artists - György Ligeti Edition Edition 4- Vocal Works (1996) FLAC/22 Rosemary Hardy, Eva Wedin - Négy lakodalmi tánc: III. Hopp ide tisztán.flac
Track gain : 15.88 dB
Peak : 0.125519
CRC32 hash (test run) : 71548B17
CRC32 hash : 71548B17
CRC32 hash (skip zero) : 38D44FBF
AccurateRip v1 signature : B298F713
AccurateRip v2 signature : 95C1291E
->Accurately ripped (v1, confidence 7/26)
Statistics
Read error : 0
Jitter error (maybe fixed) : 0
Retry sector count : 0
Damaged sector count : 0
Track 23
Filename : /Volumes/Torrent and CD Archive/Torrents/Various Artists - György Ligeti Edition Edition 4- Vocal Works (1996) FLAC/23 Rosemary Hardy, Eva Wedin - Négy lakodalmi tánc: IV. Mikor kedves Laci bátyám.flac
Track gain : 1.40 dB
Peak : 0.804718
CRC32 hash (test run) : 2CF6EED5
CRC32 hash : 2CF6EED5
CRC32 hash (skip zero) : 501B5C2A
AccurateRip v1 signature : EEB04B93
AccurateRip v2 signature : F471AF65
->Accurately ripped (v1, confidence 7/26)
Statistics
Read error : 0
Jitter error (maybe fixed) : 0
Retry sector count : 0
Damaged sector count : 0
No errors occurred
End of status report

(.CUE)

TITLE "György Ligeti Edition Edition 4: Vocal Works"
REM DATE "1996"
REM DISCID 51102B17
REM REPLAYGAIN_ALBUM_GAIN 4.79 dB
REM REPLAYGAIN_ALBUM_PEAK 1.000000
FILE "01 The King's Singers - Nonsense Madrigals: I. Two Dreams and Little Bat.flac" WAVE
TRACK 01 AUDIO
TITLE "Nonsense Madrigals: I. Two Dreams and Little Bat"
PERFORMER "The King's Singers"
SONGWRITER "György Ligeti"
ISRC USSM19503344
REM REPLAYGAIN_TRACK_GAIN 5.46 dB
REM REPLAYGAIN_TRACK_PEAK 0.649475
INDEX 01 00:00:00
FILE "02 The King's Singers - Nonsense Madrigals: II. Cuckoo in the Pear-Tree.flac" WAVE
TRACK 02 AUDIO
TITLE "Nonsense Madrigals: II. Cuckoo in the Pear-Tree"
PERFORMER "The King's Singers"
SONGWRITER "György Ligeti"
ISRC USSM19503345
REM REPLAYGAIN_TRACK_GAIN 5.51 dB
REM REPLAYGAIN_TRACK_PEAK 0.483673
INDEX 01 00:00:00
FILE "03 The King's Singers - Nonsense Madrigals: III. The Alphabet.flac" WAVE
TRACK 03 AUDIO
TITLE "Nonsense Madrigals: III. The Alphabet"
PERFORMER "The King's Singers"
SONGWRITER "György Ligeti"
ISRC USSM19503346
REM REPLAYGAIN_TRACK_GAIN 0.99 dB
REM REPLAYGAIN_TRACK_PEAK 0.725983
INDEX 01 00:00:00
FILE "04 The King's Singers - Nonsense Madrigals: IV. flying Robert.flac" WAVE
TRACK 04 AUDIO
TITLE "Nonsense Madrigals: IV. flying Robert"
PERFORMER "The King's Singers"
SONGWRITER "György Ligeti"
ISRC USSM19503347
REM REPLAYGAIN_TRACK_GAIN 4.64 dB
REM REPLAYGAIN_TRACK_PEAK 0.723694
INDEX 01 00:00:00
FILE "05 The King's Singers - Nonsense Madrigals: V. The Lobster Quadrille.flac" WAVE
TRACK 05 AUDIO
TITLE "Nonsense Madrigals: V. The Lobster Quadrille"
PERFORMER "The King's Singers"
SONGWRITER "György Ligeti"
ISRC USSM19503348
REM REPLAYGAIN_TRACK_GAIN 3.49 dB
REM REPLAYGAIN_TRACK_PEAK 0.660095
INDEX 01 00:00:00
FILE "06 The King's Singers - Nonsense Madrigals: VI. A Long, Sad Tale.flac" WAVE
TRACK 06 AUDIO
TITLE "Nonsense Madrigals: VI. A Long, Sad Tale"
PERFORMER "The King's Singers"
SONGWRITER "György Ligeti"
ISRC USSM19503349
REM REPLAYGAIN_TRACK_GAIN 3.18 dB
REM REPLAYGAIN_TRACK_PEAK 0.734436
INDEX 01 00:00:00
TRACK 07 AUDIO
TITLE "Mysteries of the Macabre"
PERFORMER "Sibylle Ehlert"
SONGWRITER "György Ligeti"
ISRC USSM19602991
REM REPLAYGAIN_TRACK_GAIN 2.85 dB
REM REPLAYGAIN_TRACK_PEAK 0.966125
INDEX 00 01:28:30
FILE "07 Sibylle Ehlert - Mysteries of the Macabre.flac" WAVE
INDEX 01 00:00:00
TRACK 08 AUDIO
TITLE "Aventures"
PERFORMER "Phyllis Bryn-Julson, Rose Taylor, Omar Ebrahim"
SONGWRITER "György Ligeti"
ISRC USSM19603260
REM REPLAYGAIN_TRACK_GAIN 5.10 dB
REM REPLAYGAIN_TRACK_PEAK 0.966064
INDEX 00 07:49:38
FILE "08 Phyllis Bryn-Julson, Rose Taylor, Omar Ebrahim - Aventures.flac" WAVE
INDEX 01 00:00:00
FILE "09 Phyllis Bryn-Julson, Rose Taylor, Omar Ebrahim - Nouvelles Aventures: I. Sostenuto.flac" WAVE
TRACK 09 AUDIO
TITLE "Nouvelles Aventures: I. Sostenuto"
PERFORMER "Phyllis Bryn-Julson, Rose Taylor, Omar Ebrahim"
SONGWRITER "György Ligeti"
ISRC USSM19603261
REM REPLAYGAIN_TRACK_GAIN 9.19 dB
REM REPLAYGAIN_TRACK_PEAK 0.986450
INDEX 01 00:00:00
FILE "10 Phyllis Bryn-Julson, Rose Taylor, Omar Ebrahim - Nouvelles Aventures: II. Agitato molto.flac" WAVE
TRACK 10 AUDIO
TITLE "Nouvelles Aventures: II. Agitato molto"
PERFORMER "Phyllis Bryn-Julson, Rose Taylor, Omar Ebrahim"
SONGWRITER "György Ligeti"
ISRC USSM19603262
REM REPLAYGAIN_TRACK_GAIN 5.40 dB
REM REPLAYGAIN_TRACK_PEAK 1.000000
INDEX 01 00:00:00
TRACK 11 AUDIO
TITLE "Der Sommer"
PERFORMER "Christiane Oelze"
SONGWRITER "György Ligeti"
ISRC USSM19603263
REM REPLAYGAIN_TRACK_GAIN 6.16 dB
REM REPLAYGAIN_TRACK_PEAK 0.486237
INDEX 00 04:39:67
FILE "11 Christiane Oelze - Der Sommer.flac" WAVE
INDEX 01 00:00:00
TRACK 12 AUDIO
TITLE "Három Weöres-dal: I. Táncol a Hold fehér ingben"
PERFORMER "Rosemary Hardy"
SONGWRITER "György Ligeti"
ISRC USSM19603264
REM REPLAYGAIN_TRACK_GAIN 7.73 dB
REM REPLAYGAIN_TRACK_PEAK 0.590027
INDEX 00 03:11:73
FILE "12 Rosemary Hardy - Három Weöres-dal: I. Táncol a Hold fehér ingben.flac" WAVE
INDEX 01 00:00:00
FILE "13 Rosemary Hardy - Három Weöres-dal: II. Gyümölcs-fürt.flac" WAVE
TRACK 13 AUDIO
TITLE "Három Weöres-dal: II. Gyümölcs-fürt"
PERFORMER "Rosemary Hardy"
SONGWRITER "György Ligeti"
ISRC USSM19603265
REM REPLAYGAIN_TRACK_GAIN 14.42 dB
REM REPLAYGAIN_TRACK_PEAK 0.216522
INDEX 01 00:00:00
FILE "14 Rosemary Hardy - Három Weöres-dal: III. Kalmár jött nagy madarakkal.flac" WAVE
TRACK 14 AUDIO
TITLE "Három Weöres-dal: III. Kalmár jött nagy madarakkal"
PERFORMER "Rosemary Hardy"
SONGWRITER "György Ligeti"
ISRC USSM19603266
REM REPLAYGAIN_TRACK_GAIN 1.82 dB
REM REPLAYGAIN_TRACK_PEAK 0.903320
INDEX 01 00:00:00
TRACK 15 AUDIO
TITLE "Öt Arany-dal: I. Csalfa sugár"
PERFORMER "Rosemary Hardy"
SONGWRITER "György Ligeti"
ISRC USSM19603267
REM REPLAYGAIN_TRACK_GAIN 14.41 dB
REM REPLAYGAIN_TRACK_PEAK 0.165100
INDEX 00 02:11:07
FILE "15 Rosemary Hardy - Öt Arany-dal: I. Csalfa sugár.flac" WAVE
INDEX 01 00:00:00
FILE "16 Rosemary Hardy - Öt Arany-dal: II. A legszebb virág.flac" WAVE
TRACK 16 AUDIO
TITLE "Öt Arany-dal: II. A legszebb virág"
PERFORMER "Rosemary Hardy"
SONGWRITER "György Ligeti"
ISRC USSM19603268
REM REPLAYGAIN_TRACK_GAIN 5.97 dB
REM REPLAYGAIN_TRACK_PEAK 0.584351
INDEX 01 00:00:00
FILE "17 Rosemary Hardy - Öt Arany-dal: III. A csendes dalokból.flac" WAVE
TRACK 17 AUDIO
TITLE "Öt Arany-dal: III. A csendes dalokból"
PERFORMER "Rosemary Hardy"
SONGWRITER "György Ligeti"
ISRC USSM19603269
REM REPLAYGAIN_TRACK_GAIN 2.36 dB
REM REPLAYGAIN_TRACK_PEAK 0.467285
INDEX 01 00:00:00
FILE "18 Rosemary Hardy - Öt Arany-dal: IV. A bujdosó.flac" WAVE
TRACK 18 AUDIO
TITLE "Öt Arany-dal: IV. A bujdosó"
PERFORMER "Rosemary Hardy"
SONGWRITER "György Ligeti"
ISRC USSM19603270
REM REPLAYGAIN_TRACK_GAIN 13.03 dB
REM REPLAYGAIN_TRACK_PEAK 0.331848
INDEX 01 00:00:00
FILE "19 Rosemary Hardy - Öt Arany-dal: V. Az ördög elvitte a fináncot.flac" WAVE
TRACK 19 AUDIO
TITLE "Öt Arany-dal: V. Az ördög elvitte a fináncot"
PERFORMER "Rosemary Hardy"
SONGWRITER "György Ligeti"
ISRC USSM19603271
REM REPLAYGAIN_TRACK_GAIN 2.25 dB
REM REPLAYGAIN_TRACK_PEAK 0.574799
INDEX 01 00:00:00
TRACK 20 AUDIO
TITLE "Négy lakodalmi tánc: I. A menyasszony szép virág"
PERFORMER "Rosemary Hardy, Eva Wedin"
SONGWRITER "György Ligeti"
ISRC USSM19603272
REM REPLAYGAIN_TRACK_GAIN 7.97 dB
REM REPLAYGAIN_TRACK_PEAK 0.296295
INDEX 00 02:09:20
FILE "20 Rosemary Hardy, Eva Wedin - Négy lakodalmi tánc: I. A menyasszony szép virág.flac" WAVE
INDEX 01 00:00:00
FILE "21 Rosemary Hardy, Eva Wedin - Négy lakodalmi tánc: II. A kapuban a szekér.flac" WAVE
TRACK 21 AUDIO
TITLE "Négy lakodalmi tánc: II. A kapuban a szekér"
PERFORMER "Rosemary Hardy, Eva Wedin"
SONGWRITER "György Ligeti"
ISRC USSM19603273
REM REPLAYGAIN_TRACK_GAIN 2.64 dB
REM REPLAYGAIN_TRACK_PEAK 0.571259
INDEX 01 00:00:00
FILE "22 Rosemary Hardy, Eva Wedin - Négy lakodalmi tánc: III. Hopp ide tisztán.flac" WAVE
TRACK 22 AUDIO
TITLE "Négy lakodalmi tánc: III. Hopp ide tisztán"
PERFORMER "Rosemary Hardy, Eva Wedin"
SONGWRITER "György Ligeti"
ISRC USSM19603274
REM REPLAYGAIN_TRACK_GAIN 15.88 dB
REM REPLAYGAIN_TRACK_PEAK 0.125519
INDEX 01 00:00:00
FILE "23 Rosemary Hardy, Eva Wedin - Négy lakodalmi tánc: IV. Mikor kedves Laci bátyám.flac" WAVE
TRACK 23 AUDIO
TITLE "Négy lakodalmi tánc: IV. Mikor kedves Laci bátyám"
PERFORMER "Rosemary Hardy, Eva Wedin"
SONGWRITER "György Ligeti"
ISRC USSM19603275
REM REPLAYGAIN_TRACK_GAIN 1.40 dB
REM REPLAYGAIN_TRACK_PEAK 0.804718
INDEX 01 00:00:00
mp3
[teatrix.ru].t18422.torrent 
Торрент: Зарегистрирован [ 2016-03-17 00:36 ] · A9D12D3BC4DCC57AA557C707B5C99EE0F5EECB09

Скачать .torrent

Скачать

23 KB

Статус: проверено
Скачан: 0 раз
Размер: 251 MB
terms.php



Быстрый ответ

Имя:

      
Для отправки сообщений необходимо включить JavaScript
Показать сообщения:    

Текущее время: 04-Дек 11:16

Часовой пояс: UTC + 3


Вы можете начинать темы
Вы можете отвечать на сообщения
Вы не можете редактировать свои сообщения
Вы не можете удалять свои сообщения
Вы не можете голосовать в опросах
Вы не можете прикреплять файлы к сообщениям
Вы можете скачивать файлы