(Classical, contemporary) Kimmo Hakola - Piano Concerto; Sinfonietta - Henri Sigfridsson, Tampere Philharmonic Orchestra, John Storgards - 2009, FLAC (image+.cue) lossless


Статистика раздачи [Обновить пиров]
Размер:  322 MB   |    Зарегистрирован:  8 месяцев 21 день   |    Скачан:  0 раз

Полного источника не было: Никогда

 
   
 
 
 

[Цитировать]

Kimmo Hakola - Piano Concerto; Sinfonietta - Henri Sigfridsson, Tampere Philharmonic Orchestra, John Storgårds
Жанр: Classical, contemporary
Страна-производитель диска: Finland
Год издания диска: 2009
Издатель (лейбл): Ondine
Номер по каталогу: ODE 1127-2
Дата записи: 2007
Аудиокодек: FLAC
Тип рипа: image+.cue
Битрейт аудио: lossless
Продолжительность: 70:27
Источник: собственный рип
Наличие сканов в содержимом раздачи: да
Треклист:
Kimmo Hakola (b.1958)
[1]-[9] Piano Concerto (1996)
[10] Sinfonietta (1999)
Исполнители:
Henri Sigfridsson piano
Tampere Philharmonic Orchestra
John Storgårds
conductor

Лог создания рипа

Exact Audio Copy V1.0 beta 3 from 29. August 2011
EAC extraction logfile from 12. April 2014, 2:35
Henri Sigfridsson, Tampere Philharmonic Orchestra, John Storgårds / Hakola - Piano Concerto
Used drive : HL-DT-STDVDRAM GSA-4083N Adapter: 1 ID: 0
Read mode : Secure
Utilize accurate stream : Yes
Defeat audio cache : Yes
Make use of C2 pointers : No
Read offset correction : 667
Overread into Lead-In and Lead-Out : No
Fill up missing offset samples with silence : Yes
Delete leading and trailing silent blocks : No
Null samples used in CRC calculations : Yes
Used interface : Native Win32 interface for Win NT & 2000
Used output format : User Defined Encoder
Selected bitrate : 896 kBit/s
Quality : High
Add ID3 tag : No
Command line compressor : C:\Program Files\Exact Audio Copy\Flac\flac.exe
Additional command line options : -V -8 %source%
TOC of the extracted CD
Track | Start | Length | Start sector | End sector
---------------------------------------------------------
1 | 0:00.00 | 5:00.58 | 0 | 22557
2 | 5:00.58 | 10:44.59 | 22558 | 70916
3 | 15:45.42 | 1:59.03 | 70917 | 79844
4 | 17:44.45 | 2:20.37 | 79845 | 90381
5 | 20:05.07 | 4:56.49 | 90382 | 112630
6 | 25:01.56 | 4:46.20 | 112631 | 134100
7 | 29:48.01 | 11:49.09 | 134101 | 187284
8 | 41:37.10 | 7:01.70 | 187285 | 218929
9 | 48:39.05 | 7:47.26 | 218930 | 253980
10 | 56:26.31 | 13:58.67 | 253981 | 316897
Range status and errors
Selected range
Filename J:\New Music\Hakola - Piano Concerto; Sinfonietta\Hakola - Piano Concerto.wav
Peak level 98.8 %
Extraction speed 2.7 X
Range quality 100.0 %
Test CRC 57EBFD2E
Copy CRC 57EBFD2E
Copy OK
No errors occurred
AccurateRip summary
Track 1 accurately ripped (confidence 2) [035CBCAD] (AR v2)
Track 2 accurately ripped (confidence 2) [FA3E4A27] (AR v2)
Track 3 accurately ripped (confidence 2) [63451CFC] (AR v2)
Track 4 accurately ripped (confidence 2) [99A0FB11] (AR v2)
Track 5 accurately ripped (confidence 2) [4F8D6F82] (AR v2)
Track 6 accurately ripped (confidence 2) [74493779] (AR v2)
Track 7 accurately ripped (confidence 2) [D17251AF] (AR v2)
Track 8 accurately ripped (confidence 2) [FBC91504] (AR v2)
Track 9 accurately ripped (confidence 2) [4E02B1B4] (AR v2)
Track 10 accurately ripped (confidence 2) [0B321367] (AR v2)
All tracks accurately ripped
End of status report
==== Log checksum 29EF55FC95A59FECCC43DE8F128F3C3460794BECDE4236EEDEA8240C0A48FF70 ====
[teatrix.ru].t18423.torrent 
Торрент: Зарегистрирован [ 2016-03-17 00:36 ] · ADA0271AB6578840E5BA6C8F47C4EDAB38EF2980

Скачать .torrent

Скачать

26 KB

Статус: проверено
Скачан: 0 раз
Размер: 322 MB
terms.php



Быстрый ответ

Имя:

      
Для отправки сообщений необходимо включить JavaScript
Показать сообщения:    

Текущее время: 07-Дек 19:25

Часовой пояс: UTC + 3


Вы можете начинать темы
Вы можете отвечать на сообщения
Вы не можете редактировать свои сообщения
Вы не можете удалять свои сообщения
Вы не можете голосовать в опросах
Вы не можете прикреплять файлы к сообщениям
Вы можете скачивать файлы