(Classical, sacred) Medieval Mass of Blessed Mary • Palestrina - Missa Aeterna Christi munera - Schola Cantorum Budapestiensis, Balazs Arnoth, Tamas Bubno, Janos Mezei - 1995, FLAC (image+.cue) lossless


Статистика раздачи [Обновить пиров]
Размер:  289 MB   |    Зарегистрирован:  8 месяцев 20 дней   |    Скачан:  0 раз

Полного источника не было: Никогда

 
   
 
 
 

[Цитировать]

Medieval Mass of Blessed Mary • Palestrina - Missa Aeterna Christi munera - Schola Cantorum Budapestiensis, Balázs Arnóth, Tamás Bubnó, János Mezei
Жанр: Classical, sacred
Страна-производитель диска: Hungary
Год издания диска: 1995
Издатель (лейбл): Hungaroton
Дата записи: 1994
Аудиокодек: FLAC
Тип рипа: image+.cue
Битрейт аудио: lossless
Продолжительность: 62:24
Источник: собственный рип
Наличие сканов в содержимом раздачи: да
Треклист:
[1]-[11] Medieval Mass of the Blessed Mary
Giovanni Pierluigi da Palestrina (1525-1594)
[12]-[25] Missa Aeterna Christi munera
Исполнители:
Schola Cantorum Budapestiensis
Conducted by
Balázs Arnóth, Tamás Bubnó, János Mezei

Лог создания рипа

Exact Audio Copy V1.0 beta 3 from 29. August 2011
EAC extraction logfile from 6. December 2013, 17:26
Schola Cantorum Budapestiensis / Medieval Mass of Blessed Mary
Used drive : HL-DT-STDVDRRW GWA-4164B Adapter: 5 ID: 0
Read mode : Secure
Utilize accurate stream : Yes
Defeat audio cache : Yes
Make use of C2 pointers : No
Read offset correction : 102
Overread into Lead-In and Lead-Out : No
Fill up missing offset samples with silence : Yes
Delete leading and trailing silent blocks : No
Null samples used in CRC calculations : Yes
Used interface : Native Win32 interface for Win NT & 2000
Used output format : User Defined Encoder
Selected bitrate : 896 kBit/s
Quality : High
Add ID3 tag : No
Command line compressor : C:\Program Files\Exact Audio Copy\FLAC\FLAC.EXE
Additional command line options : -V -8 %source%
TOC of the extracted CD
Track | Start | Length | Start sector | End sector
---------------------------------------------------------
1 | 0:00.00 | 3:36.35 | 0 | 16234
2 | 3:36.35 | 2:33.25 | 16235 | 27734
3 | 6:09.60 | 4:38.07 | 27735 | 48591
4 | 10:47.67 | 2:38.58 | 48592 | 60499
5 | 13:26.50 | 2:03.12 | 60500 | 69736
6 | 15:29.62 | 2:04.25 | 69737 | 79061
7 | 17:34.12 | 1:23.33 | 79062 | 85319
8 | 18:57.45 | 3:35.10 | 85320 | 101454
9 | 22:32.55 | 2:33.15 | 101455 | 112944
10 | 25:05.70 | 3:01.15 | 112945 | 126534
11 | 28:07.10 | 2:42.55 | 126535 | 138739
12 | 30:49.65 | 1:57.57 | 138740 | 147571
13 | 32:47.47 | 2:42.15 | 147572 | 159736
14 | 35:29.62 | 2:22.30 | 159737 | 170416
15 | 37:52.17 | 1:56.33 | 170417 | 179149
16 | 39:48.50 | 2:32.07 | 179150 | 190556
17 | 42:20.57 | 1:28.38 | 190557 | 197194
18 | 43:49.20 | 2:46.30 | 197195 | 209674
19 | 46:35.50 | 4:28.60 | 209675 | 229834
20 | 51:04.35 | 1:04.22 | 229835 | 234656
21 | 52:08.57 | 3:29.30 | 234657 | 250361
22 | 55:38.12 | 1:16.70 | 250362 | 256131
23 | 56:55.07 | 3:32.15 | 256132 | 272046
24 | 60:27.22 | 0:46.55 | 272047 | 275551
25 | 61:14.02 | 1:09.50 | 275552 | 280776
Range status and errors
Selected range
Filename D:\temp\Music\Medieval Mass of Blessed Mary (Schola Cantorum Budapestiensis)\Medieval Mass of Blessed Mary.wav
Peak level 77.8 %
Extraction speed 2.9 X
Range quality 100.0 %
Test CRC AAF1C3D2
Copy CRC AAF1C3D2
Copy OK
No errors occurred
AccurateRip summary
Track 1 not present in database
Track 2 not present in database
Track 3 not present in database
Track 4 not present in database
Track 5 not present in database
Track 6 not present in database
Track 7 not present in database
Track 8 not present in database
Track 9 not present in database
Track 10 not present in database
Track 11 not present in database
Track 12 not present in database
Track 13 not present in database
Track 14 not present in database
Track 15 not present in database
Track 16 not present in database
Track 17 not present in database
Track 18 not present in database
Track 19 not present in database
Track 20 not present in database
Track 21 not present in database
Track 22 not present in database
Track 23 not present in database
Track 24 not present in database
Track 25 not present in database
None of the tracks are present in the AccurateRip database
End of status report
==== Log checksum 5CDE6C1F2FB1683B9D73E925693FD1D15D43122C166F86952A88A6A9507817B3 ====
[teatrix.ru].t18425.torrent 
Торрент: Зарегистрирован [ 2016-03-17 00:36 ] · F6AB4447749F6FE211C4330F817F9EE19DF4E131

Скачать .torrent

Скачать

25 KB

Статус: проверено
Скачан: 0 раз
Размер: 289 MB
terms.php



Быстрый ответ

Имя:

      
Для отправки сообщений необходимо включить JavaScript
Показать сообщения:    

Текущее время: 06-Дек 22:55

Часовой пояс: UTC + 3


Вы можете начинать темы
Вы можете отвечать на сообщения
Вы не можете редактировать свои сообщения
Вы не можете удалять свои сообщения
Вы не можете голосовать в опросах
Вы не можете прикреплять файлы к сообщениям
Вы можете скачивать файлы