(Classical, Vocal) Jose Carreras (Rossini, Donizetti, Bellini, Verdi) - Italian Opera Composers' Songs {Martin Katz, piano} - 1990, FLAC (tracks+.cue) lossless


 

[Цитировать]

José Carreras, Martin Katz - Italian Opera Composers' Songs (1990)
Жанр: Classical, Vocal
Страна-производитель диска: USA
Год издания диска: 1990
Издатель (лейбл): Sony Classical
Номер по каталогу: SK 45863
Дата записи: 1989
Аудиокодек: FLAC
Тип рипа: tracks+.cue
Битрейт аудио: lossless
Продолжительность: 01:03:47
Источник: собственный рип
Наличие сканов в содержимом раздачи: да, фото
Треклист:
01. L'esule (Gioachino Rossini) (3:59)
02. L'amor funesto (Gaetano Donizetti) (5:25)
03. Le crepuscule (Gaetano Donizetti) (3:40)
04. Una lacrima (Gaetano Donizetti) (4:23)
05. Amor marinaro (Gaetano Donizetti) (2:41)
06. Il sospiro (Gaetano Donizetti) (3:47)
07. La ricordanza (Vincenzo Bellini) (5:52)
08. Malinconia, ninfa gentile (Vincenzo Bellini) (2:03)
09. Vaga luna che inargenti (Vincenzo Bellini) (3:25)
10. Per pieta, bell' idol mio (Vincenzo Bellini) (2:43)
11. Il fervido desiderio (Vincenzo Bellini) (2:49)
12. Dolenta immagine di Fille mia (Vincenzo Bellini) (3:37)
13. In solitaria stanza (Giuseppe Verdi) (3:52)
14. Il poveretto (Giuseppe Verdi) (2:56)
15. Il tramonto (Giuseppe Verdi) (3:02)
16. Brindisi (Giuseppe Verdi) (2:09)
17. L'esule (Giuseppe Verdi) (7:24)Исполнители:
José Carreras - vocal
Martin Katz - piano
Доп. информация:
Recorded at Konzerthaus Wien, Mozartsaal, November 23-30, 1989

Лог создания рипа

Exact Audio Copy V1.0 beta 1 from 15. November 2010
EAC extraction logfile from 30. April 2014, 1:19
Jose Carreras; Martin Katz, Piano / Italian Opera Composers' Songs
Used drive : Optiarc DVD RW AD-7200A Adapter: 0 ID: 0
Read mode : Secure
Utilize accurate stream : Yes
Defeat audio cache : Yes
Make use of C2 pointers : No
Read offset correction : 48
Overread into Lead-In and Lead-Out : No
Fill up missing offset samples with silence : Yes
Delete leading and trailing silent blocks : No
Null samples used in CRC calculations : Yes
Used interface : Native Win32 interface for Win NT & 2000
Gap handling : Appended to previous track
Used output format : User Defined Encoder
Selected bitrate : 768 kBit/s
Quality : High
Add ID3 tag : No
Command line compressor : C:\Program Files\Exact Audio Copy\Flac\flac.exe
Additional command line options : -8 -V -T "ARTIST=%a" -T "TITLE=%t" -T "ALBUM=%g" -T "DATE=%y" -T "TRACKNUMBER=%n" -T "TOTALTRACKS=%x" -T "GENRE=%m" -T "ALBUMARTIST=%v" -T "ALBUM ARTIST=%v" -T "COMMENT=EAC Secure Mode, Test & Copy, AccurateRip, FLAC -8" %s
TOC of the extracted CD
Track | Start | Length | Start sector | End sector
---------------------------------------------------------
1 | 0:00.00 | 3:59.10 | 0 | 17934
2 | 3:59.10 | 5:25.07 | 17935 | 42316
3 | 9:24.17 | 3:40.00 | 42317 | 58816
4 | 13:04.17 | 4:23.20 | 58817 | 78561
5 | 17:27.37 | 2:40.50 | 78562 | 90611
6 | 20:08.12 | 3:47.00 | 90612 | 107636
7 | 23:55.12 | 5:51.38 | 107637 | 133999
8 | 29:46.50 | 2:03.22 | 134000 | 143246
9 | 31:49.72 | 3:25.10 | 143247 | 158631
10 | 35:15.07 | 2:42.65 | 158632 | 170846
11 | 37:57.72 | 2:49.13 | 170847 | 183534
12 | 40:47.10 | 3:36.40 | 183535 | 199774
13 | 44:23.50 | 3:52.35 | 199775 | 217209
14 | 48:16.10 | 2:55.70 | 217210 | 230404
15 | 51:12.05 | 3:01.67 | 230405 | 244046
16 | 54:13.72 | 2:09.18 | 244047 | 253739
17 | 56:23.15 | 7:23.40 | 253740 | 287004
Track 1
Filename D:\Jose Carreras - Italian Opera Composers' Songs (1990) [FLAC] {Martin Katz, Piano}\01 - L'esule (Gioachino Rossini).wav
Pre-gap length 0:00:02.00
Peak level 93.5 %
Extraction speed 2.5 X
Track quality 100.0 %
Test CRC A79197C7
Copy CRC A79197C7
Accurately ripped (confidence 4) [20C81CDE]
Copy OK
Track 2
Filename D:\Jose Carreras - Italian Opera Composers' Songs (1990) [FLAC] {Martin Katz, Piano}\02 - L'amor funesto (Gaetano Donizetti).wav
Pre-gap length 0:00:00.03
Peak level 56.9 %
Extraction speed 2.6 X
Track quality 99.9 %
Test CRC A4FB87B5
Copy CRC A4FB87B5
Accurately ripped (confidence 4) [CD728914]
Copy OK
Track 3
Filename D:\Jose Carreras - Italian Opera Composers' Songs (1990) [FLAC] {Martin Katz, Piano}\03 - Le crepuscule (Gaetano Donizetti).wav
Pre-gap length 0:00:00.02
Peak level 46.8 %
Extraction speed 3.0 X
Track quality 100.0 %
Test CRC 884A3E9E
Copy CRC 884A3E9E
Accurately ripped (confidence 4) [9B500CF0]
Copy OK
Track 4
Filename D:\Jose Carreras - Italian Opera Composers' Songs (1990) [FLAC] {Martin Katz, Piano}\04 - Una lacrima (Gaetano Donizetti).wav
Pre-gap length 0:00:00.02
Peak level 77.5 %
Extraction speed 3.2 X
Track quality 100.0 %
Test CRC 4649E91F
Copy CRC 4649E91F
Accurately ripped (confidence 4) [6DA3278E]
Copy OK
Track 5
Filename D:\Jose Carreras - Italian Opera Composers' Songs (1990) [FLAC] {Martin Katz, Piano}\05 - Amor marinaro (Gaetano Donizetti).wav
Pre-gap length 0:00:00.02
Peak level 97.2 %
Extraction speed 3.2 X
Track quality 100.0 %
Test CRC C623987F
Copy CRC C623987F
Accurately ripped (confidence 4) [B0871284]
Copy OK
Track 6
Filename D:\Jose Carreras - Italian Opera Composers' Songs (1990) [FLAC] {Martin Katz, Piano}\06 - Il sospiro (Gaetano Donizetti).wav
Pre-gap length 0:00:00.02
Peak level 85.8 %
Extraction speed 3.5 X
Track quality 100.0 %
Test CRC C27D64D6
Copy CRC C27D64D6
Accurately ripped (confidence 4) [216E1FD4]
Copy OK
Track 7
Filename D:\Jose Carreras - Italian Opera Composers' Songs (1990) [FLAC] {Martin Katz, Piano}\07 - La ricordanza (Vincenzo Bellini).wav
Pre-gap length 0:00:00.02
Peak level 75.0 %
Extraction speed 3.9 X
Track quality 100.0 %
Test CRC F18FC6FC
Copy CRC F18FC6FC
Accurately ripped (confidence 4) [51893ED1]
Copy OK
Track 8
Filename D:\Jose Carreras - Italian Opera Composers' Songs (1990) [FLAC] {Martin Katz, Piano}\08 - Malinconia, ninfa gentile (Vincenzo Bellini).wav
Pre-gap length 0:00:00.03
Peak level 72.3 %
Extraction speed 3.5 X
Track quality 100.0 %
Test CRC 2F0845D9
Copy CRC 2F0845D9
Accurately ripped (confidence 4) [5CD9B00C]
Copy OK
Track 9
Filename D:\Jose Carreras - Italian Opera Composers' Songs (1990) [FLAC] {Martin Katz, Piano}\09 - Vaga luna che inargenti (Vincenzo Bellini).wav
Pre-gap length 0:00:00.02
Peak level 51.4 %
Extraction speed 3.9 X
Track quality 100.0 %
Test CRC C0E73E1E
Copy CRC C0E73E1E
Accurately ripped (confidence 4) [6D06603B]
Copy OK
Track 10
Filename D:\Jose Carreras - Italian Opera Composers' Songs (1990) [FLAC] {Martin Katz, Piano}\10 - Per pieta, bell' idol mio (Vincenzo Bellini).wav
Pre-gap length 0:00:00.02
Peak level 79.6 %
Extraction speed 3.9 X
Track quality 100.0 %
Test CRC A1BAC29D
Copy CRC A1BAC29D
Accurately ripped (confidence 4) [B51C0F3D]
Copy OK
Track 11
Filename D:\Jose Carreras - Italian Opera Composers' Songs (1990) [FLAC] {Martin Katz, Piano}\11 - Il fervido desiderio (Vincenzo Bellini).wav
Pre-gap length 0:00:00.02
Peak level 40.7 %
Extraction speed 4.0 X
Track quality 100.0 %
Test CRC D71C9EAD
Copy CRC D71C9EAD
Accurately ripped (confidence 4) [473AFBD2]
Copy OK
Track 12
Filename D:\Jose Carreras - Italian Opera Composers' Songs (1990) [FLAC] {Martin Katz, Piano}\12 - Dolenta immagine di Fille mia (Vincenzo Bellini).wav
Pre-gap length 0:00:00.03
Peak level 41.6 %
Extraction speed 3.7 X
Track quality 99.9 %
Test CRC B5A27265
Copy CRC B5A27265
Accurately ripped (confidence 4) [EF76CA5F]
Copy OK
Track 13
Filename D:\Jose Carreras - Italian Opera Composers' Songs (1990) [FLAC] {Martin Katz, Piano}\13 - In solitaria stanza (Giuseppe Verdi).wav
Pre-gap length 0:00:00.03
Peak level 53.6 %
Extraction speed 4.5 X
Track quality 100.0 %
Test CRC C38A3DFC
Copy CRC C38A3DFC
Accurately ripped (confidence 4) [9FB60799]
Copy OK
Track 14
Filename D:\Jose Carreras - Italian Opera Composers' Songs (1990) [FLAC] {Martin Katz, Piano}\14 - Il poveretto (Giuseppe Verdi).wav
Pre-gap length 0:00:00.03
Peak level 67.1 %
Extraction speed 4.4 X
Track quality 100.0 %
Test CRC E2B84BCC
Copy CRC E2B84BCC
Accurately ripped (confidence 4) [2F1B8766]
Copy OK
Track 15
Filename D:\Jose Carreras - Italian Opera Composers' Songs (1990) [FLAC] {Martin Katz, Piano}\15 - Il tramonto (Giuseppe Verdi).wav
Pre-gap length 0:00:00.03
Peak level 95.8 %
Extraction speed 4.4 X
Track quality 100.0 %
Test CRC 7A88C1AB
Copy CRC 7A88C1AB
Accurately ripped (confidence 4) [CA176780]
Copy OK
Track 16
Filename D:\Jose Carreras - Italian Opera Composers' Songs (1990) [FLAC] {Martin Katz, Piano}\16 - Brindisi (Giuseppe Verdi).wav
Pre-gap length 0:00:00.02
Peak level 80.2 %
Extraction speed 4.3 X
Track quality 100.0 %
Test CRC EEC11AA7
Copy CRC EEC11AA7
Accurately ripped (confidence 4) [85432A71]
Copy OK
Track 17
Filename D:\Jose Carreras - Italian Opera Composers' Songs (1990) [FLAC] {Martin Katz, Piano}\17 - L'esule (Giuseppe Verdi).wav
Pre-gap length 0:00:00.03
Peak level 99.2 %
Extraction speed 5.3 X
Track quality 100.0 %
Test CRC 326214E6
Copy CRC 326214E6
Accurately ripped (confidence 4) [CEDD3428]
Copy OK
All tracks accurately ripped
No errors occurred
End of status report
==== Log checksum B4A492F8E0E791200E53BF993A5FE81394FAAF40C6C0465BBA9BF7D9601C350B ====

Содержание индексной карты (.CUE)

REM GENRE Classical
REM DATE 1990
REM DISCID 050EF211
REM COMMENT "ExactAudioCopy v1.0b1"
PERFORMER "Jose Carreras; Martin Katz, Piano"
TITLE "Italian Opera Composers' Songs"
FILE "01 - L'esule (Gioachino Rossini).wav" WAVE
TRACK 01 AUDIO
TITLE "L'esule (Gioachino Rossini)"
PERFORMER "Jose Carreras; Martin Katz, Piano"
INDEX 01 00:00:00
TRACK 02 AUDIO
TITLE "L'amor funesto (Gaetano Donizetti)"
PERFORMER "Jose Carreras; Martin Katz, Piano"
INDEX 00 03:59:07
FILE "02 - L'amor funesto (Gaetano Donizetti).wav" WAVE
INDEX 01 00:00:00
TRACK 03 AUDIO
TITLE "Le crepuscule (Gaetano Donizetti)"
PERFORMER "Jose Carreras; Martin Katz, Piano"
INDEX 00 05:25:05
FILE "03 - Le crepuscule (Gaetano Donizetti).wav" WAVE
INDEX 01 00:00:00
TRACK 04 AUDIO
TITLE "Una lacrima (Gaetano Donizetti)"
PERFORMER "Jose Carreras; Martin Katz, Piano"
INDEX 00 03:39:73
FILE "04 - Una lacrima (Gaetano Donizetti).wav" WAVE
INDEX 01 00:00:00
TRACK 05 AUDIO
TITLE "Amor marinaro (Gaetano Donizetti)"
PERFORMER "Jose Carreras; Martin Katz, Piano"
INDEX 00 04:23:18
FILE "05 - Amor marinaro (Gaetano Donizetti).wav" WAVE
INDEX 01 00:00:00
TRACK 06 AUDIO
TITLE "Il sospiro (Gaetano Donizetti)"
PERFORMER "Jose Carreras; Martin Katz, Piano"
INDEX 00 02:40:48
FILE "06 - Il sospiro (Gaetano Donizetti).wav" WAVE
INDEX 01 00:00:00
TRACK 07 AUDIO
TITLE "La ricordanza (Vincenzo Bellini)"
PERFORMER "Jose Carreras; Martin Katz, Piano"
INDEX 00 03:46:73
FILE "07 - La ricordanza (Vincenzo Bellini).wav" WAVE
INDEX 01 00:00:00
TRACK 08 AUDIO
TITLE "Malinconia, ninfa gentile (Vincenzo Bellini)"
PERFORMER "Jose Carreras; Martin Katz, Piano"
INDEX 00 05:51:35
FILE "08 - Malinconia, ninfa gentile (Vincenzo Bellini).wav" WAVE
INDEX 01 00:00:00
TRACK 09 AUDIO
TITLE "Vaga luna che inargenti (Vincenzo Bellini)"
PERFORMER "Jose Carreras; Martin Katz, Piano"
INDEX 00 02:03:20
FILE "09 - Vaga luna che inargenti (Vincenzo Bellini).wav" WAVE
INDEX 01 00:00:00
TRACK 10 AUDIO
TITLE "Per pieta, bell' idol mio (Vincenzo Bellini)"
PERFORMER "Jose Carreras; Martin Katz, Piano"
INDEX 00 03:25:08
FILE "10 - Per pieta, bell' idol mio (Vincenzo Bellini).wav" WAVE
INDEX 01 00:00:00
TRACK 11 AUDIO
TITLE "Il fervido desiderio (Vincenzo Bellini)"
PERFORMER "Jose Carreras; Martin Katz, Piano"
INDEX 00 02:42:63
FILE "11 - Il fervido desiderio (Vincenzo Bellini).wav" WAVE
INDEX 01 00:00:00
TRACK 12 AUDIO
TITLE "Dolenta immagine di Fille mia (Vincenzo Bellini)"
PERFORMER "Jose Carreras; Martin Katz, Piano"
INDEX 00 02:49:10
FILE "12 - Dolenta immagine di Fille mia (Vincenzo Bellini).wav" WAVE
INDEX 01 00:00:00
TRACK 13 AUDIO
TITLE "In solitaria stanza (Giuseppe Verdi)"
PERFORMER "Jose Carreras; Martin Katz, Piano"
INDEX 00 03:36:37
FILE "13 - In solitaria stanza (Giuseppe Verdi).wav" WAVE
INDEX 01 00:00:00
TRACK 14 AUDIO
TITLE "Il poveretto (Giuseppe Verdi)"
PERFORMER "Jose Carreras; Martin Katz, Piano"
INDEX 00 03:52:32
FILE "14 - Il poveretto (Giuseppe Verdi).wav" WAVE
INDEX 01 00:00:00
TRACK 15 AUDIO
TITLE "Il tramonto (Giuseppe Verdi)"
PERFORMER "Jose Carreras; Martin Katz, Piano"
INDEX 00 02:55:67
FILE "15 - Il tramonto (Giuseppe Verdi).wav" WAVE
INDEX 01 00:00:00
TRACK 16 AUDIO
TITLE "Brindisi (Giuseppe Verdi)"
PERFORMER "Jose Carreras; Martin Katz, Piano"
INDEX 00 03:01:65
FILE "16 - Brindisi (Giuseppe Verdi).wav" WAVE
INDEX 01 00:00:00
TRACK 17 AUDIO
TITLE "L'esule (Giuseppe Verdi)"
PERFORMER "Jose Carreras; Martin Katz, Piano"
INDEX 00 02:09:15
FILE "17 - L'esule (Giuseppe Verdi).wav" WAVE
INDEX 01 00:00:00

Review By PhantomOfTheOpera, Amazon

The songs on this disc are pieces of music which have only received passing notice in musical life. And after having listened to the 17 songs here one may wonder why. All the songs are small gems from the great Italian opera composers Rossini, Donizetti, Bellini and Verdi and include ariettas, canzonas and romances with no other accompaniment than a piano. Sure, as the cover booklet states, the subject matter of the songs are all "kisses", "tears", "addios", "memories", "keepsakes" and "sighs" of abandoned women, the lonely or the exiled, but as all opera lovers know it's the exact same material of which great operas are made. And I can only say that it's really beautiful music even if the setting isn't as grand as that of an opera.
Fortunately we have the songs translated into English as well as German and French. I find that the lyrics of this kind of songs are essential to the appreciation of them. The uses of words in these songs are done in a slightly old-fashioned manner, but it gives the songs a kind of an elegance and beauty that I find very attractive. And sung in the voice of José Carreras they are nothing short of wonderful.
These songs are best appreciated if you take the time to sit down, put on your headphones and have the lyrics in front of you when you listen to them. José sings these songs in his unmistakeable style; honest and heartfelt, it comes from the very deepest of his soul. This was recorded in 1989 and his voice is as beautiful as it ever was; dark coloured with that underlying hint of sensuality. In some of the songs he takes my breath away; his soft notes are so achingly beautiful that they literally bring me to tears.
My favourite songs are Bellini's "La ricordanza" and Rossini's "L'esule", but the whole album is highly recommended and I'm quite sure that if you already know and like the works coming from these opera composers you're destined to fall in love with these songs as well.



Показать сообщения:    

Текущее время: 10-Дек 17:49

Часовой пояс: UTC + 3


Вы не можете начинать темы
Вы не можете отвечать на сообщения
Вы не можете редактировать свои сообщения
Вы не можете удалять свои сообщения
Вы не можете голосовать в опросах
Вы не можете прикреплять файлы к сообщениям
Вы не можете скачивать файлы