(Classical, Vocal) Franz Schubert - Heidenroslein: Schubert Lieder {Elly Ameling, Dalton Baldwin, 1972-1982}, FLAC (tracks+.cue) lossless


 

[Цитировать]

Franz Schubert - Heidenröslein: Schubert Lieder {Elly Ameling, Dalton Baldwin, 1972 ~ 1982}
Жанр: Classical, Vocal
Страна-производитель диска: Japan
Год издания диска: 1989
Издатель (лейбл): Philips
Номер по каталогу: 17CD-36
Дата записи: 1972-1982
Аудиокодек: FLAC
Тип рипа: tracks+.cue
Битрейт аудио: lossless
Продолжительность: 01:03:05
Источник: собственный рип
Наличие сканов в содержимом раздачи: да, фото
Треклист:
01. Heidenröslein, D. 257 (Op. 3/3) (1:58)
02. Liebhaber in alien Gestalten, D. 558 (1:20)
03. Das Lied im Grünen, D. 917 (Op. 115/1) (5:12)
04. Fischerweise, D. 881 (Op. 96/4) (3:09)
05. Romanze aus ''Rosamunde'', D. 797, 3b (Op. 26) (3:19)
06. Der Einsame, D. 800 (Op. 41) (3:55)
07. An Sylvia, D. 891 (Op. 106/4) (2:53)
08. Seligkeit, D. 433 (1:54)
09. Die junge Nonne, D. 828 (Op. 43/1) (4:47)
10. Gretchen am Spinnrade, D. 118 (Op. 2) (3:48)
11. Ellens Gesang III (Ave Maria), D. 839 (Op. 52/6) (5:48)
12. An Die Music, D. 547 (Op. 88/4) (2:57)
13. Frühlingssehnsucht, D. 957, 3 (3:14)
14. Wiegenlied, D. 498 (op. 98/2) (3:02)
15. Im Abendrot, D. 799 (4:14)
16. Nacht und Träume, D. 827 (Op. 43/2) (3:51)
17. Du Bist Die Ruh, D. 776 (Op. 59/3) (4:50)
18. Nachtviolen, D. 752 (2:55)Исполнители:
Elly Ameling - soprano
Dalton Baldwin - piano
дополнительная информация:
Japanese compilation, 1989

Лог создания рипа

Exact Audio Copy V1.0 beta 1 from 15. November 2010
EAC extraction logfile from 1. May 2014, 19:45
Elly Ameling, Dalton Baldwin / Heidenroslein ~ Schubert Lieder
Used drive : Optiarc DVD RW AD-7200A Adapter: 0 ID: 0
Read mode : Secure
Utilize accurate stream : Yes
Defeat audio cache : Yes
Make use of C2 pointers : No
Read offset correction : 48
Overread into Lead-In and Lead-Out : No
Fill up missing offset samples with silence : Yes
Delete leading and trailing silent blocks : No
Null samples used in CRC calculations : Yes
Used interface : Native Win32 interface for Win NT & 2000
Gap handling : Appended to previous track
Used output format : User Defined Encoder
Selected bitrate : 768 kBit/s
Quality : High
Add ID3 tag : No
Command line compressor : C:\Program Files\Exact Audio Copy\Flac\flac.exe
Additional command line options : -8 -V -T "ARTIST=%a" -T "TITLE=%t" -T "ALBUM=%g" -T "DATE=%y" -T "TRACKNUMBER=%n" -T "TOTALTRACKS=%x" -T "GENRE=%m" -T "ALBUMARTIST=%v" -T "ALBUM ARTIST=%v" -T "COMMENT=EAC Secure Mode, Test & Copy, AccurateRip, FLAC -8" %s
TOC of the extracted CD
Track | Start | Length | Start sector | End sector
---------------------------------------------------------
1 | 0:00.00 | 1:57.57 | 0 | 8831
2 | 1:57.57 | 1:20.10 | 8832 | 14841
3 | 3:17.67 | 5:11.58 | 14842 | 38224
4 | 8:29.50 | 3:09.32 | 38225 | 52431
5 | 11:39.07 | 3:18.63 | 52432 | 67344
6 | 14:57.70 | 3:55.25 | 67345 | 84994
7 | 18:53.20 | 2:53.17 | 84995 | 97986
8 | 21:46.37 | 1:53.53 | 97987 | 106514
9 | 23:40.15 | 4:46.70 | 106515 | 128034
10 | 28:27.10 | 3:47.60 | 128035 | 145119
11 | 32:14.70 | 5:47.45 | 145120 | 171189
12 | 38:02.40 | 2:57.27 | 171190 | 184491
13 | 40:59.67 | 3:13.50 | 184492 | 199016
14 | 44:13.42 | 3:02.03 | 199017 | 212669
15 | 47:15.45 | 4:14.12 | 212670 | 231731
16 | 51:29.57 | 3:50.68 | 231732 | 249049
17 | 55:20.50 | 4:49.52 | 249050 | 270776
18 | 60:10.27 | 2:54.48 | 270777 | 283874
Track 1
Filename D:\Schubert - Heidenroslein ~ Schubert Lieder (1989) [FLAC] {Ameling, Baldwin}\01 - Heidenroslein, D. 257 (Op. 3,3).wav
Pre-gap length 0:00:02.00
Peak level 57.6 %
Extraction speed 2.0 X
Track quality 100.0 %
Test CRC CB8DA042
Copy CRC CB8DA042
Accurately ripped (confidence 3) [C4731329]
Copy OK
Track 2
Filename D:\Schubert - Heidenroslein ~ Schubert Lieder (1989) [FLAC] {Ameling, Baldwin}\02 - Liebhaber in alien Gestalten, D. 558.wav
Pre-gap length 0:00:02.57
Peak level 75.2 %
Extraction speed 1.9 X
Track quality 100.0 %
Test CRC 0AF12DC8
Copy CRC 0AF12DC8
Accurately ripped (confidence 3) [3B4B7C07]
Copy OK
Track 3
Filename D:\Schubert - Heidenroslein ~ Schubert Lieder (1989) [FLAC] {Ameling, Baldwin}\03 - Das Lied im Grunen, D. 917 (Op. 115,1).wav
Pre-gap length 0:00:02.22
Peak level 86.4 %
Extraction speed 2.7 X
Track quality 100.0 %
Test CRC 99C1A4EB
Copy CRC 99C1A4EB
Accurately ripped (confidence 3) [E293343C]
Copy OK
Track 4
Filename D:\Schubert - Heidenroslein ~ Schubert Lieder (1989) [FLAC] {Ameling, Baldwin}\04 - Fischerweise, D. 881 (Op. 96,4).wav
Pre-gap length 0:00:03.35
Peak level 54.4 %
Extraction speed 2.7 X
Track quality 100.0 %
Test CRC C7FA80D8
Copy CRC C7FA80D8
Accurately ripped (confidence 3) [9867D8AB]
Copy OK
Track 5
Filename D:\Schubert - Heidenroslein ~ Schubert Lieder (1989) [FLAC] {Ameling, Baldwin}\05 - Romanze aus ''Rosamunde'', D. 797, 3b (Op. 26).wav
Pre-gap length 0:00:02.62
Peak level 40.4 %
Extraction speed 2.9 X
Track quality 100.0 %
Test CRC 72D254DB
Copy CRC 72D254DB
Accurately ripped (confidence 3) [442FFEBA]
Copy OK
Track 6
Filename D:\Schubert - Heidenroslein ~ Schubert Lieder (1989) [FLAC] {Ameling, Baldwin}\06 - Der Einsame, D. 800 (Op. 41).wav
Pre-gap length 0:00:01.53
Peak level 58.1 %
Extraction speed 3.2 X
Track quality 100.0 %
Test CRC 532F5A1C
Copy CRC 532F5A1C
Accurately ripped (confidence 3) [F766AF00]
Copy OK
Track 7
Filename D:\Schubert - Heidenroslein ~ Schubert Lieder (1989) [FLAC] {Ameling, Baldwin}\07 - An Sylvia, D. 891 (Op. 106,4).wav
Pre-gap length 0:00:02.25
Peak level 75.4 %
Extraction speed 3.2 X
Track quality 100.0 %
Test CRC F4EFF97A
Copy CRC F4EFF97A
Accurately ripped (confidence 3) [72A4CCC6]
Copy OK
Track 8
Filename D:\Schubert - Heidenroslein ~ Schubert Lieder (1989) [FLAC] {Ameling, Baldwin}\08 - Seligkeit, D. 433.wav
Pre-gap length 0:00:02.32
Peak level 92.2 %
Extraction speed 3.0 X
Track quality 100.0 %
Test CRC 96AA1350
Copy CRC 96AA1350
Accurately ripped (confidence 3) [DA078093]
Copy OK
Track 9
Filename D:\Schubert - Heidenroslein ~ Schubert Lieder (1989) [FLAC] {Ameling, Baldwin}\09 - Die junge Nonne, D. 828 (Op. 43,1).wav
Pre-gap length 0:00:04.43
Peak level 81.4 %
Extraction speed 3.7 X
Track quality 100.0 %
Test CRC CB976C31
Copy CRC CB976C31
Accurately ripped (confidence 3) [2685104A]
Copy OK
Track 10
Filename D:\Schubert - Heidenroslein ~ Schubert Lieder (1989) [FLAC] {Ameling, Baldwin}\10 - Gretchen am Spinnrade, D. 118 (Op. 2).wav
Pre-gap length 0:00:04.73
Peak level 92.3 %
Extraction speed 3.2 X
Track quality 99.9 %
Test CRC EE3332A8
Copy CRC EE3332A8
Accurately ripped (confidence 3) [26080C10]
Copy OK
Track 11
Filename D:\Schubert - Heidenroslein ~ Schubert Lieder (1989) [FLAC] {Ameling, Baldwin}\11 - Ellens Gesang III (Ave Maria), D. 839 (Op. 52,6).wav
Pre-gap length 0:00:04.25
Peak level 66.7 %
Extraction speed 4.2 X
Track quality 100.0 %
Test CRC 10D06C22
Copy CRC 10D06C22
Accurately ripped (confidence 3) [E4A66994]
Copy OK
Track 12
Filename D:\Schubert - Heidenroslein ~ Schubert Lieder (1989) [FLAC] {Ameling, Baldwin}\12 - An Die Music, D. 547 (Op. 88,4).wav
Pre-gap length 0:00:04.70
Peak level 77.3 %
Extraction speed 4.0 X
Track quality 100.0 %
Test CRC 55B3B0D8
Copy CRC 55B3B0D8
Accurately ripped (confidence 3) [DB7EC501]
Copy OK
Track 13
Filename D:\Schubert - Heidenroslein ~ Schubert Lieder (1989) [FLAC] {Ameling, Baldwin}\13 - Fruhlingssehnsucht, D. 957, 3.wav
Pre-gap length 0:00:03.20
Peak level 85.5 %
Extraction speed 4.2 X
Track quality 100.0 %
Test CRC E7694E41
Copy CRC E7694E41
Accurately ripped (confidence 3) [791E8A7B]
Copy OK
Track 14
Filename D:\Schubert - Heidenroslein ~ Schubert Lieder (1989) [FLAC] {Ameling, Baldwin}\14 - Wiegenlied, D. 498 (op. 98,2).wav
Pre-gap length 0:00:02.72
Peak level 30.4 %
Extraction speed 4.2 X
Track quality 100.0 %
Test CRC 8E37231D
Copy CRC 8E37231D
Accurately ripped (confidence 3) [55B5EF2B]
Copy OK
Track 15
Filename D:\Schubert - Heidenroslein ~ Schubert Lieder (1989) [FLAC] {Ameling, Baldwin}\15 - Im Abendrot, D. 799.wav
Pre-gap length 0:00:01.18
Peak level 50.1 %
Extraction speed 4.6 X
Track quality 100.0 %
Test CRC 401C4180
Copy CRC 401C4180
Accurately ripped (confidence 3) [9D562254]
Copy OK
Track 16
Filename D:\Schubert - Heidenroslein ~ Schubert Lieder (1989) [FLAC] {Ameling, Baldwin}\16 - Nacht und Traume, D. 827 (Op. 43,2).wav
Pre-gap length 0:00:01.10
Peak level 24.9 %
Extraction speed 4.6 X
Track quality 100.0 %
Test CRC B5802D11
Copy CRC B5802D11
Accurately ripped (confidence 3) [8A37408A]
Copy OK
Track 17
Filename D:\Schubert - Heidenroslein ~ Schubert Lieder (1989) [FLAC] {Ameling, Baldwin}\17 - Du Bist Die Ruh, D. 776 (Op. 59,3).wav
Pre-gap length 0:00:01.53
Peak level 67.9 %
Extraction speed 4.9 X
Track quality 100.0 %
Test CRC 3296BCB7
Copy CRC 3296BCB7
Accurately ripped (confidence 3) [86FBACDB]
Copy OK
Track 18
Filename D:\Schubert - Heidenroslein ~ Schubert Lieder (1989) [FLAC] {Ameling, Baldwin}\18 - Nachtviolen, D. 752.wav
Pre-gap length 0:00:03.15
Peak level 24.1 %
Extraction speed 4.7 X
Track quality 100.0 %
Test CRC A7C5D416
Copy CRC A7C5D416
Accurately ripped (confidence 3) [E0045AD3]
Copy OK
All tracks accurately ripped
No errors occurred
End of status report
==== Log checksum 688813B59BEE35C95468946ECF341A1972A3D3CCF89B692FE1A7598D1FDCC455 ====

Содержание индексной карты (.CUE)

REM GENRE Vocal
REM DATE 1989
REM DISCID F20EC912
REM COMMENT "ExactAudioCopy v1.0b1"
PERFORMER "Elly Ameling, Dalton Baldwin"
TITLE "Heidenroslein ~ Schubert Lieder"
FILE "01 - Heidenroslein, D. 257 (Op. 3,3).wav" WAVE
TRACK 01 AUDIO
TITLE "Heidenroslein, D. 257 (Op. 3/3)"
PERFORMER "Elly Ameling, Dalton Baldwin"
INDEX 01 00:00:00
TRACK 02 AUDIO
TITLE "Liebhaber in alien Gestalten, D. 558"
PERFORMER "Elly Ameling, Dalton Baldwin"
INDEX 00 01:55:00
FILE "02 - Liebhaber in alien Gestalten, D. 558.wav" WAVE
INDEX 01 00:00:00
TRACK 03 AUDIO
TITLE "Das Lied im Grunen, D. 917 (Op. 115/1)"
PERFORMER "Elly Ameling, Dalton Baldwin"
INDEX 00 01:17:63
FILE "03 - Das Lied im Grunen, D. 917 (Op. 115,1).wav" WAVE
INDEX 01 00:00:00
TRACK 04 AUDIO
TITLE "Fischerweise, D. 881 (Op. 96/4)"
PERFORMER "Elly Ameling, Dalton Baldwin"
INDEX 00 05:08:23
FILE "04 - Fischerweise, D. 881 (Op. 96,4).wav" WAVE
INDEX 01 00:00:00
TRACK 05 AUDIO
TITLE "Romanze aus ''Rosamunde'', D. 797, 3b (Op. 26)"
PERFORMER "Elly Ameling, Dalton Baldwin"
INDEX 00 03:06:45
FILE "05 - Romanze aus ''Rosamunde'', D. 797, 3b (Op. 26).wav" WAVE
INDEX 01 00:00:00
TRACK 06 AUDIO
TITLE "Der Einsame, D. 800 (Op. 41)"
PERFORMER "Elly Ameling, Dalton Baldwin"
INDEX 00 03:17:10
FILE "06 - Der Einsame, D. 800 (Op. 41).wav" WAVE
INDEX 01 00:00:00
TRACK 07 AUDIO
TITLE "An Sylvia, D. 891 (Op. 106/4)"
PERFORMER "Elly Ameling, Dalton Baldwin"
INDEX 00 03:53:00
FILE "07 - An Sylvia, D. 891 (Op. 106,4).wav" WAVE
INDEX 01 00:00:00
TRACK 08 AUDIO
TITLE "Seligkeit, D. 433"
PERFORMER "Elly Ameling, Dalton Baldwin"
INDEX 00 02:50:60
FILE "08 - Seligkeit, D. 433.wav" WAVE
INDEX 01 00:00:00
TRACK 09 AUDIO
TITLE "Die junge Nonne, D. 828 (Op. 43/1)"
PERFORMER "Elly Ameling, Dalton Baldwin"
INDEX 00 01:49:10
FILE "09 - Die junge Nonne, D. 828 (Op. 43,1).wav" WAVE
INDEX 01 00:00:00
TRACK 10 AUDIO
TITLE "Gretchen am Spinnrade, D. 118 (Op. 2)"
PERFORMER "Elly Ameling, Dalton Baldwin"
INDEX 00 04:41:72
FILE "10 - Gretchen am Spinnrade, D. 118 (Op. 2).wav" WAVE
INDEX 01 00:00:00
TRACK 11 AUDIO
TITLE "Ellens Gesang III (Ave Maria), D. 839 (Op. 52/6)"
PERFORMER "Elly Ameling, Dalton Baldwin"
INDEX 00 03:43:35
FILE "11 - Ellens Gesang III (Ave Maria), D. 839 (Op. 52,6).wav" WAVE
INDEX 01 00:00:00
TRACK 12 AUDIO
TITLE "An Die Music, D. 547 (Op. 88/4)"
PERFORMER "Elly Ameling, Dalton Baldwin"
INDEX 00 05:42:50
FILE "12 - An Die Music, D. 547 (Op. 88,4).wav" WAVE
INDEX 01 00:00:00
TRACK 13 AUDIO
TITLE "Fruhlingssehnsucht, D. 957, 3"
PERFORMER "Elly Ameling, Dalton Baldwin"
INDEX 00 02:54:07
FILE "13 - Fruhlingssehnsucht, D. 957, 3.wav" WAVE
INDEX 01 00:00:00
TRACK 14 AUDIO
TITLE "Wiegenlied, D. 498 (op. 98/2)"
PERFORMER "Elly Ameling, Dalton Baldwin"
INDEX 00 03:10:53
FILE "14 - Wiegenlied, D. 498 (op. 98,2).wav" WAVE
INDEX 01 00:00:00
TRACK 15 AUDIO
TITLE "Im Abendrot, D. 799"
PERFORMER "Elly Ameling, Dalton Baldwin"
INDEX 00 03:00:60
FILE "15 - Im Abendrot, D. 799.wav" WAVE
INDEX 01 00:00:00
TRACK 16 AUDIO
TITLE "Nacht und Traume, D. 827 (Op. 43/2)"
PERFORMER "Elly Ameling, Dalton Baldwin"
INDEX 00 04:13:02
FILE "16 - Nacht und Traume, D. 827 (Op. 43,2).wav" WAVE
INDEX 01 00:00:00
TRACK 17 AUDIO
TITLE "Du Bist Die Ruh, D. 776 (Op. 59/3)"
PERFORMER "Elly Ameling, Dalton Baldwin"
INDEX 00 03:49:15
FILE "17 - Du Bist Die Ruh, D. 776 (Op. 59,3).wav" WAVE
INDEX 01 00:00:00
TRACK 18 AUDIO
TITLE "Nachtviolen, D. 752"
PERFORMER "Elly Ameling, Dalton Baldwin"
INDEX 00 04:46:37
FILE "18 - Nachtviolen, D. 752.wav" WAVE
INDEX 01 00:00:00



Показать сообщения:    

Текущее время: 04-Дек 17:19

Часовой пояс: UTC + 3


Вы не можете начинать темы
Вы не можете отвечать на сообщения
Вы не можете редактировать свои сообщения
Вы не можете удалять свои сообщения
Вы не можете голосовать в опросах
Вы не можете прикреплять файлы к сообщениям
Вы не можете скачивать файлы