(Classical, Baroque) Tafelmusik Baroque Orchestra - 47CD. Collection (Bach, Beethoven, Biber, Boccherini) - 2015, FLAC (image+.cue) lossless


Статистика раздачи [Обновить пиров]
Размер:  2.9 GB   |    Зарегистрирован:  8 месяцев 19 дней   |    Скачан:  0 раз

Полного источника не было: Никогда

 
   
 
 
 

[Цитировать]

Tafelmusik Baroque Orchestra - 47CD. Collection
Жанр: Classical
Год издания диска: 2015
Издатель (лейбл): Deutsche Grammophon / Sony Music
Номер по каталогу: 88875030622
Год записи:
Аудиокодек: FLAC
Тип рипа: image+.cue
Битрейт аудио: lossless
Продолжительность: ~
Источник: скачано из сети; Спасибо, Vilboa
Наличие сканов в содержимом раздачи: да

CD01-02: J.S.Bach - 6 Brandenburg Concertos (00:42:01+00:51:19):

Исполнители:
Tafelmusik
Jeanne Lamon, music director
Треклист:
CD1
Concerto No.1 in F major, BWV 1046:
01. I. (-) (04:11)
02. II. Adagio (03:39)
03. III. Allegro (04:08)
04. IV. Menuetto - Trio - Polonaise - Trio (07:35)
Concerto No.2 in F major, BWV 1047:
05. I. (-) (05:13)
06. II. Andante (03:25)
07. III. Allegro assai (03:11)
Concerto No.3 in G major, BWV 1048:
08. I. (-) (05:52)
09. II. Allegro (04:47)
CD2
01. Concerto No.4 in G major, BWV 1049: I. Allegro (06:52)
02. II. Andante (03:10)
03. III. Presto (04:56)
04. Concerto No.5 in D major, BWV 1050: I. Allegro (10:02)
05. II. Affettuoso (05:01)
06. III. Allegro (05:18)
07. Concerto No.6 in B-flat major, BWV 1051: I. (-) (05:59)
08. II. Adagio ma non tanto (04:24)
09. III. Allegro (05:37)-

LOG CD01:

Exact Audio Copy V1.0 beta 3 from 29. August 2011
EAC extraction logfile from 4. March 2016, 15:51
Tafelmusik, Jeanne Lamon / Bach - Brandenburg Concertos CD1
Used drive : PIONEER BD-RW BDR-207M Adapter: 0 ID: 0
Read mode : Secure
Utilize accurate stream : Yes
Defeat audio cache : Yes
Make use of C2 pointers : No
Read offset correction : 667
Overread into Lead-In and Lead-Out : No
Fill up missing offset samples with silence : Yes
Delete leading and trailing silent blocks : No
Null samples used in CRC calculations : Yes
Used interface : Native Win32 interface for Win NT & 2000
Used output format : User Defined Encoder
Selected bitrate : 128 kBit/s
Quality : High
Add ID3 tag : No
Command line compressor : C:\Program Files\Exact Audio Copy\Flac\flac.exe
Additional command line options : -V -8 -T "Date=%year%" -T "Genre=%genre%" %source%
TOC of the extracted CD
Track | Start | Length | Start sector | End sector
––––––––––––––––––––––––––––-
1 | 0:00.00 | 4:11.42 | 0 | 18866
2 | 4:11.42 | 3:39.60 | 18867 | 35351
3 | 7:51.27 | 4:08.68 | 35352 | 54019
4 | 12:00.20 | 7:35.30 | 54020 | 88174
5 | 19:35.50 | 5:13.12 | 88175 | 111661
6 | 24:48.62 | 3:25.13 | 111662 | 127049
7 | 28:14.00 | 3:11.45 | 127050 | 141419
8 | 31:25.45 | 5:52.07 | 141420 | 167826
9 | 37:17.52 | 4:46.63 | 167827 | 189339
Range status and errors
Selected range
Filename C:\Program Files\Exact Audio Copy\Flac\Bach - Brandenburg Concertos CD1.wav
Peak level 92.9 %
Extraction speed 6.5 X
Range quality 99.9 %
Test CRC D9FB2550
Copy CRC D9FB2550
Copy OK
No errors occurred
End of status report
==== Log checksum 3C14E4A5AA7A02644F4FE52CF17E74B5F338481DB14CD9FDD4E2938B27C92865 ====

LOG CD02:

Exact Audio Copy V1.0 beta 3 from 29. August 2011
EAC extraction logfile from 4. March 2016, 16:20
Tafelmusik, Jeanne Lamon / Bach - Brandenburg Concertos CD2
Used drive : PIONEER BD-RW BDR-207M Adapter: 0 ID: 0
Read mode : Secure
Utilize accurate stream : Yes
Defeat audio cache : Yes
Make use of C2 pointers : No
Read offset correction : 667
Overread into Lead-In and Lead-Out : No
Fill up missing offset samples with silence : Yes
Delete leading and trailing silent blocks : No
Null samples used in CRC calculations : Yes
Used interface : Native Win32 interface for Win NT & 2000
Used output format : User Defined Encoder
Selected bitrate : 128 kBit/s
Quality : High
Add ID3 tag : No
Command line compressor : C:\Program Files\Exact Audio Copy\Flac\flac.exe
Additional command line options : -V -8 -T "Date=%year%" -T "Genre=%genre%" %source%
TOC of the extracted CD
Track | Start | Length | Start sector | End sector
––––––––––––––––––––––––––––-
1 | 0:00.00 | 6:52.62 | 0 | 30961
2 | 6:52.62 | 3:10.65 | 30962 | 45276
3 | 10:03.52 | 4:56.73 | 45277 | 67549
4 | 15:00.50 | 10:02.62 | 67550 | 112761
5 | 25:03.37 | 5:01.70 | 112762 | 135406
6 | 30:05.32 | 5:18.18 | 135407 | 159274
7 | 35:23.50 | 5:59.70 | 159275 | 186269
8 | 41:23.45 | 4:24.72 | 186270 | 206141
9 | 45:48.42 | 5:37.53 | 206142 | 231469
Range status and errors
Selected range
Filename C:\Program Files\Exact Audio Copy\Flac\Bach - Brandenburg Concertos CD2.wav
Peak level 80.4 %
Extraction speed 6.8 X
Range quality 99.9 %
Test CRC B91CF70E
Copy CRC B91CF70E
Copy OK
No errors occurred
End of status report
==== Log checksum 620BBD5264BD3D9AB885E45A7896CCA229072AE2E77C344D50C4429F7B141986 ====

CD03: J.S. Bach - Violin Concertos, BWV 1041, 1042, 1043 & 1064 (01:01:55):

Исполнители:
Linda Meisted, solo violin II
David Greenberg, solo violin III
Tafelmusik
Jeanne Lamon, solo violin I & music director
Треклист:
Concerto for Violin, Strings & b.c. in A minor, BWV 1041:
01. I. (-) (03:46)
02. II. Andante (06:10)
03. III. Allegro assai (03:49)
Concerto for 2 Violins, Strings & b.c. in D minor, BWV 1043:
04. I. Vivace (03:35)
05. II. Largo ma non tanto (06:11)
06. III. Allegro (04:23)
Concerto for Violin, Strings & b.c. in E major, BWV 1042:
07. I. Allegro (07:42)
08. II. Adagio (06:36)
09. III. Allegro assai (02:52)
Concerto for 3 Violins, Strings & b.c. in D major, BWV 1064r:
10. I. Allegro (06:16)
11. II. Adagio (05:51)
12. III. Allegro (04:44)-

LOG CD03:

Exact Audio Copy V1.0 beta 3 from 29. August 2011
EAC extraction logfile from 4. March 2016, 16:52
Tafelmusik, Jeanne Lamon / Bach - Violin Concertos, BWV 1041, 1042, 1043 & 1064
Used drive : PIONEER BD-RW BDR-207M Adapter: 0 ID: 0
Read mode : Secure
Utilize accurate stream : Yes
Defeat audio cache : Yes
Make use of C2 pointers : No
Read offset correction : 667
Overread into Lead-In and Lead-Out : No
Fill up missing offset samples with silence : Yes
Delete leading and trailing silent blocks : No
Null samples used in CRC calculations : Yes
Used interface : Native Win32 interface for Win NT & 2000
Used output format : User Defined Encoder
Selected bitrate : 128 kBit/s
Quality : High
Add ID3 tag : No
Command line compressor : C:\Program Files\Exact Audio Copy\Flac\flac.exe
Additional command line options : -V -8 -T "Date=%year%" -T "Genre=%genre%" %source%
TOC of the extracted CD
Track | Start | Length | Start sector | End sector
––––––––––––––––––––––––––––-
1 | 0:00.00 | 3:46.50 | 0 | 16999
2 | 3:46.50 | 6:10.00 | 17000 | 44749
3 | 9:56.50 | 3:49.62 | 44750 | 61986
4 | 13:46.37 | 3:35.40 | 61987 | 78151
5 | 17:22.02 | 6:11.25 | 78152 | 106001
6 | 23:33.27 | 4:23.25 | 106002 | 125751
7 | 27:56.52 | 7:42.10 | 125752 | 160411
8 | 35:38.62 | 6:36.68 | 160412 | 190179
9 | 42:15.55 | 2:52.35 | 190180 | 203114
10 | 45:08.15 | 6:16.25 | 203115 | 231339
11 | 51:24.40 | 5:51.52 | 231340 | 257716
12 | 57:16.17 | 4:44.58 | 257717 | 279074
Range status and errors
Selected range
Filename C:\Program Files\Exact Audio Copy\Flac\Bach - Violin Concertos, BWV 1041, 1042, 1043 & 1064.wav
Peak level 92.7 %
Extraction speed 7.2 X
Range quality 100.0 %
Test CRC 45F297A0
Copy CRC 45F297A0
Copy OK
No errors occurred
End of status report
==== Log checksum B7A59CABD13955F646EA0E068A9AC5B5924D9AB95A9636D9F338A2B75EB82E1E ====

CD04: W.F. Bach - Sinfonias; Suite; Harpsichord Concerto (01:11:34):

Исполнители:
Charlotte Nediger, harpsichord
Tafelmusik
Jeanne Lamon, music director
Треклист:
Sinfonia in D major F 64:
01. I. Allegro e maestoso (03:55)
02. II. Andante (03:15)
03. III. Vivace (03:29)
04. Sinfonia in D minor F 65: Adagio - Fugue (09:39)
Suite in G minor:
05. I. Ouverture. Larghetto (04:35)
06. II. Torneo (01:58)
07. III. Aria. Adagio (05:22)
08. IV. Menuetto alternativo - Trio (04:48)
09. V. Capriccio (03:38)
Concerto for Harpsichord, Strings & b.c. in D major F 41:
10. Allegro (05:50)
11. II. Andante (05:34)
12. III. Vivace (04:33)
Sinfonia for Strings in F major F 67:
13. I. Vivace (04:22)
14. II. Andante (04:48)
15. III. Allegro (03:18)
16. IV. Menuetto I - Menuetto II (02:30)-

LOG CD04:

Exact Audio Copy V1.0 beta 3 from 29. August 2011
EAC extraction logfile from 4. March 2016, 17:33
Tafelmusik, Jeanne Lamon / W.F.Bach - Sinfonias, Suite in G minor, Concerto for Harpsichord in D major
Used drive : PIONEER BD-RW BDR-207M Adapter: 0 ID: 0
Read mode : Secure
Utilize accurate stream : Yes
Defeat audio cache : Yes
Make use of C2 pointers : No
Read offset correction : 667
Overread into Lead-In and Lead-Out : No
Fill up missing offset samples with silence : Yes
Delete leading and trailing silent blocks : No
Null samples used in CRC calculations : Yes
Used interface : Native Win32 interface for Win NT & 2000
Used output format : User Defined Encoder
Selected bitrate : 128 kBit/s
Quality : High
Add ID3 tag : No
Command line compressor : C:\Program Files\Exact Audio Copy\Flac\flac.exe
Additional command line options : -V -8 -T "Date=%year%" -T "Genre=%genre%" %source%
TOC of the extracted CD
Track | Start | Length | Start sector | End sector
––––––––––––––––––––––––––––-
1 | 0:00.00 | 3:55.55 | 0 | 17679
2 | 3:55.55 | 3:15.25 | 17680 | 32329
3 | 7:11.05 | 3:29.70 | 32330 | 48074
4 | 10:41.00 | 9:39.72 | 48075 | 91571
5 | 20:20.72 | 4:35.58 | 91572 | 112254
6 | 24:56.55 | 1:58.15 | 112255 | 121119
7 | 26:54.70 | 5:22.00 | 121120 | 145269
8 | 32:16.70 | 4:48.35 | 145270 | 166904
9 | 37:05.30 | 3:38.25 | 166905 | 183279
10 | 40:43.55 | 5:50.22 | 183280 | 209551
11 | 46:34.02 | 5:34.15 | 209552 | 234616
12 | 52:08.17 | 4:33.70 | 234617 | 255161
13 | 56:42.12 | 4:22.18 | 255162 | 274829
14 | 61:04.30 | 4:48.32 | 274830 | 296461
15 | 65:52.62 | 3:18.50 | 296462 | 311361
16 | 69:11.37 | 2:30.25 | 311362 | 322636
Range status and errors
Selected range
Filename C:\Program Files\Exact Audio Copy\Flac\W.F.Bach - Sinfonias, Suite in G minor, Concerto for Harpsichord in D major.wav
Peak level 61.7 %
Extraction speed 7.9 X
Range quality 100.0 %
Test CRC 2842E31F
Copy CRC 2842E31F
Copy OK
No errors occurred
End of status report
==== Log checksum 9557649C2A829356A321A033126D40AC35EDBE74EA3C256ED1CC5DB0D014A8A6 ====

CD05-07: Beethoven - Piano Concerto No.1-5 & Violin Concerto (01:01:46+01:09:07+01:11:54):

Исполнители:
Jos van Immerseel, fortepiano
Vera Beths, violin
Tafelmusik
Bruno Well, conductor
Треклист:
CD1
Piano Concerto No.1 in C major, Op.15:
01. I. Allegro con brio (14:49)
02. II. Largo (09:48)
03. III. Rondo: Allegro (10:04)
Piano Concerto No.2 in B-flat major, Op.19:
04. I. Allegro con brio (13:36)
05. II. Adagio (07:52)
06. III. Rondo: Molto allegro (05:37)
CD2
01. Piano Concerto No.3 in C minor, Op.37: I. Allegro con brio (17:10)
02. II. Largo (09:25)
03. III. Rondo: Allegro (09:36)
04. Piano Concerto No.4 in G major, Op.58: I. Allegro moderato (18:50)
05. II. Andante con moto (03:55)
06. III. Rondo: Vivace (10:11)
CD3
Piano Concerto No. 5 in E-flat, Op. 73 'Emperor':
01. I. Allegro con brio (19:30)
02. II. Adagio un poco mosso (06:43)
03. III. Rondo: Allegro (09:47)
Violin Concerto in D major, Op.61:
04. I. Allegro ma non tropo (19:56)
05. II. Larghetto (07:11)
06. III. Rondo: Allegro (08:47)-

LOG CD05:

Exact Audio Copy V1.0 beta 3 from 29. August 2011
EAC extraction logfile from 6. March 2016, 12:54
Jos van Immerseel, Tafelmusik / Beethoven - Piano Concertos Nos.1 & 2
Used drive : PIONEER BD-RW BDR-207M Adapter: 0 ID: 0
Read mode : Secure
Utilize accurate stream : Yes
Defeat audio cache : Yes
Make use of C2 pointers : No
Read offset correction : 667
Overread into Lead-In and Lead-Out : No
Fill up missing offset samples with silence : Yes
Delete leading and trailing silent blocks : No
Null samples used in CRC calculations : Yes
Used interface : Native Win32 interface for Win NT & 2000
Used output format : User Defined Encoder
Selected bitrate : 128 kBit/s
Quality : High
Add ID3 tag : No
Command line compressor : C:\Program Files\Exact Audio Copy\Flac\flac.exe
Additional command line options : -V -8 -T "Date=%year%" -T "Genre=%genre%" %source%
TOC of the extracted CD
Track | Start | Length | Start sector | End sector
––––––––––––––––––––––––––––-
1 | 0:00.00 | 14:49.32 | 0 | 66706
2 | 14:49.32 | 9:48.08 | 66707 | 110814
3 | 24:37.40 | 10:04.05 | 110815 | 156119
4 | 34:41.45 | 13:36.72 | 156120 | 217391
5 | 48:18.42 | 7:52.28 | 217392 | 252819
6 | 56:10.70 | 5:37.27 | 252820 | 278121
Range status and errors
Selected range
Filename C:\Program Files\Exact Audio Copy\Flac\Beethoven - Piano Concertos Nos.1 & 2.wav
Peak level 99.2 %
Extraction speed 7.2 X
Range quality 100.0 %
Test CRC B135D1BD
Copy CRC B135D1BD
Copy OK
No errors occurred
End of status report
==== Log checksum 03726DEA8A3536B3BA16BD1ABC250CA8E32A93F24CD6560D90601553FC6354D4 ====

LOG CD06:

Exact Audio Copy V1.0 beta 3 from 29. August 2011
EAC extraction logfile from 6. March 2016, 13:17
Jos van Immerseel, Tafelmusik / Beethoven - Piano Concertos Nos. 3 & 4
Used drive : PIONEER BD-RW BDR-207M Adapter: 0 ID: 0
Read mode : Secure
Utilize accurate stream : Yes
Defeat audio cache : Yes
Make use of C2 pointers : No
Read offset correction : 667
Overread into Lead-In and Lead-Out : No
Fill up missing offset samples with silence : Yes
Delete leading and trailing silent blocks : No
Null samples used in CRC calculations : Yes
Used interface : Native Win32 interface for Win NT & 2000
Used output format : User Defined Encoder
Selected bitrate : 128 kBit/s
Quality : High
Add ID3 tag : No
Command line compressor : C:\Program Files\Exact Audio Copy\Flac\flac.exe
Additional command line options : -V -8 -T "Date=%year%" -T "Genre=%genre%" %source%
TOC of the extracted CD
Track | Start | Length | Start sector | End sector
––––––––––––––––––––––––––––-
1 | 0:00.00 | 17:10.52 | 0 | 77301
2 | 17:10.52 | 9:25.55 | 77302 | 119731
3 | 26:36.32 | 9:36.18 | 119732 | 162949
4 | 36:12.50 | 18:50.65 | 162950 | 247764
5 | 55:03.40 | 3:55.15 | 247765 | 265404
6 | 58:58.55 | 10:11.20 | 265405 | 311249
Range status and errors
Selected range
Filename C:\Program Files\Exact Audio Copy\Flac\Beethoven - Piano Concertos Nos. 3 & 4.wav
Peak level 99.9 %
Extraction speed 7.8 X
Range quality 99.9 %
Test CRC F7227316
Copy CRC F7227316
Copy OK
No errors occurred
End of status report
==== Log checksum B1C8562796096D48564505F287FEB759F498474C3BEFEE02BDF7FEC75E2BDDDD ====

LOG CD07:

Exact Audio Copy V1.0 beta 3 from 29. August 2011
EAC extraction logfile from 6. March 2016, 13:43
Jos van Immerseel, Vera Beths, Tafelmusik / Beethoven - Piano Concerto No.5 & Violin Concerto
Used drive : PIONEER BD-RW BDR-207M Adapter: 0 ID: 0
Read mode : Secure
Utilize accurate stream : Yes
Defeat audio cache : Yes
Make use of C2 pointers : No
Read offset correction : 667
Overread into Lead-In and Lead-Out : No
Fill up missing offset samples with silence : Yes
Delete leading and trailing silent blocks : No
Null samples used in CRC calculations : Yes
Used interface : Native Win32 interface for Win NT & 2000
Used output format : User Defined Encoder
Selected bitrate : 128 kBit/s
Quality : High
Add ID3 tag : No
Command line compressor : C:\Program Files\Exact Audio Copy\Flac\flac.exe
Additional command line options : -V -8 -T "Date=%year%" -T "Genre=%genre%" %source%
TOC of the extracted CD
Track | Start | Length | Start sector | End sector
––––––––––––––––––––––––––––-
1 | 0:00.00 | 19:30.50 | 0 | 87799
2 | 19:30.50 | 6:43.65 | 87800 | 118089
3 | 26:14.40 | 9:47.10 | 118090 | 162124
4 | 36:01.50 | 19:56.37 | 162125 | 251861
5 | 55:58.12 | 7:11.25 | 251862 | 284211
6 | 63:09.37 | 8:47.15 | 284212 | 323751
Range status and errors
Selected range
Filename C:\Program Files\Exact Audio Copy\Flac\Beethoven - Piano Concerto No.5 & Violin Concerto.wav
Peak level 99.9 %
Extraction speed 7.9 X
Range quality 99.9 %
Test CRC D085564C
Copy CRC D085564C
Copy OK
No errors occurred
End of status report
==== Log checksum AD4266FA51FD8A438F68D95E989706D86E054D849E76AA0D835E2A1900885727 ====

CD08: Biber - Harmonia artificioso-ariosa - (01:17:37):

Исполнители:
Tafelmusik
Jeanne Lamon, violin & music director
Треклист:
Partia I in D minor for 2 Violins & B.c.:
01. I. Sonata. Adagio - Presto - Adagio (02:43)
02. II. Allamande (01:56)
03. III. Gigue - Variatio I & II (04:17)
04. IV. Aria (01:49)
05. V. Sarabande - Variatio 1&2 - Finale. Presto (03:48)
Partia II in B minor for 2 Violins & B.c.:
06. I. Praeludium (01:54)
07. II. Allamande - Variatio (03:34)
08. III. Balleto. Allegro (01:02)
09. IV. Aria. Presto (00:41)
10. V. Gigue. Presto (01:21)
Partia III in A major for 2 Violins & B.c.:
11. I. Praeludium. Allegro (01:34)
12. II. Allamande (01:49)
13. III. Amener. Presto (00:55)
14. IV. Balletto (01:11)
15. V. Gigue (00:32)
16. VI. Ciacona (Canon in unisono) (03:48)
Partia IV in E-flat major for Violin, Viola & B.c.:
17. I. Sonata. Adagio - Allegro... (02:33)
18. II. Allamande (01:52)
19. III. Trezza. Presto (00:50)
20. VI. Aria (00:56)
21. V. Canario (00:40)
22. VI. Gigue. Presto (01:08)
23. VII. Pollicinello. Presto (00:26)
Partia V in G minor for 2 Violins & B.c.:
24. I. Intrada. Alla breve (01:25)
25. II. Aria. Adagio (01:13)
26. III. Balletto. Presto (00:26)
27. IV. Gigue (00:52)
28. V. Passacaglia. (Adagio) - Allegro - Adagio (05:05)
Partia VI in D major for 2 Violins & B.c.:
29. I. Praeludium. Adagio - Allegro (02:54)
30. II. Aria - Variatio I - XIII (06:29)
31. III. Finale. Adagio - Allegro (01:15)
Partia VII in C minor for 2 Viole d'amore & B.c.:
32. I. Praeludium (02:39)
33. II. Allamande (02:06)
34. III. Sarabande (01:33)
35. IV. Gigue. Presto (01:55)
36. V. Aria (01:36)
37. VI. Trezza (00:46)
38. VII. Arietta variata (06:04)-

LOG CD08:

Exact Audio Copy V1.0 beta 3 from 29. August 2011
EAC extraction logfile from 7. March 2016, 11:45
Tafelmusik, Jeanne Lamon / Biber - Harmonia artificioso-ariosa
Used drive : PIONEER BD-RW BDR-207M Adapter: 0 ID: 0
Read mode : Secure
Utilize accurate stream : Yes
Defeat audio cache : Yes
Make use of C2 pointers : No
Read offset correction : 667
Overread into Lead-In and Lead-Out : No
Fill up missing offset samples with silence : Yes
Delete leading and trailing silent blocks : No
Null samples used in CRC calculations : Yes
Used interface : Native Win32 interface for Win NT & 2000
Used output format : User Defined Encoder
Selected bitrate : 128 kBit/s
Quality : High
Add ID3 tag : No
Command line compressor : C:\Program Files\Exact Audio Copy\Flac\flac.exe
Additional command line options : -V -8 -T "Date=%year%" -T "Genre=%genre%" %source%
TOC of the extracted CD
Track | Start | Length | Start sector | End sector
---------------------------------------------------------
1 | 0:00.00 | 2:43.32 | 0 | 12256
2 | 2:43.32 | 1:56.63 | 12257 | 21019
3 | 4:40.20 | 4:17.60 | 21020 | 40354
4 | 8:58.05 | 1:49.07 | 40355 | 48536
5 | 10:47.12 | 3:48.38 | 48537 | 65674
6 | 14:35.50 | 1:54.10 | 65675 | 74234
7 | 16:29.60 | 3:34.62 | 74235 | 90346
8 | 20:04.47 | 1:02.13 | 90347 | 95009
9 | 21:06.60 | 0:41.07 | 95010 | 98091
10 | 21:47.67 | 1:21.58 | 98092 | 104224
11 | 23:09.50 | 1:34.65 | 104225 | 111339
12 | 24:44.40 | 1:49.72 | 111340 | 119586
13 | 26:34.37 | 0:55.03 | 119587 | 123714
14 | 27:29.40 | 1:11.60 | 123715 | 129099
15 | 28:41.25 | 0:32.72 | 129100 | 131571
16 | 29:14.22 | 3:48.28 | 131572 | 148699
17 | 33:02.50 | 2:33.17 | 148700 | 160191
18 | 35:35.67 | 1:52.10 | 160192 | 168601
19 | 37:28.02 | 0:50.30 | 168602 | 172381
20 | 38:18.32 | 0:56.65 | 172382 | 176646
21 | 39:15.22 | 0:40.23 | 176647 | 179669
22 | 39:55.45 | 1:08.55 | 179670 | 184824
23 | 41:04.25 | 0:26.25 | 184825 | 186799
24 | 41:30.50 | 1:25.50 | 186800 | 193224
25 | 42:56.25 | 1:13.22 | 193225 | 198721
26 | 44:09.47 | 0:26.33 | 198722 | 200704
27 | 44:36.05 | 0:52.05 | 200705 | 204609
28 | 45:28.10 | 5:05.40 | 204610 | 227524
29 | 50:33.50 | 2:54.55 | 227525 | 240629
30 | 53:28.30 | 6:29.45 | 240630 | 269849
31 | 59:58.00 | 1:15.50 | 269850 | 275524
32 | 61:13.50 | 2:39.40 | 275525 | 287489
33 | 63:53.15 | 2:06.42 | 287490 | 296981
34 | 65:59.57 | 1:33.08 | 296982 | 303964
35 | 67:32.65 | 1:55.67 | 303965 | 312656
36 | 69:28.57 | 1:36.15 | 312657 | 319871
37 | 71:04.72 | 0:46.05 | 319872 | 323326
38 | 71:51.02 | 6:05.03 | 323327 | 350704
Range status and errors
Selected range
Filename C:\Program Files\Exact Audio Copy\Flac\Biber - Harmonia artificioso-ariosa.wav
Peak level 94.3 %
Extraction speed 7.1 X
Range quality 100.0 %
Test CRC D52FE084
Copy CRC D52FE084
Copy OK
No errors occurred
End of status report
==== Log checksum B92917FE74264F19FF59545304449570305FF2F9FC58CEC69414B0F9A93060E6 ====

CD09: Boccherini - Cello Concertos, Sinfonias - (01:07:17):

Исполнители:
Anner Bylsma, violoncello
Tafelmusik
Jeanne Lamon, music director
Треклист:
Cello Concerto in G major, G. 480:
01. I. Allegro (07:01)
02. II. Adagio (04:56)
03. III. Allegro (04:06)
Sinfonia in B-flat major, G. 497:
04. I. Allegro spiritoso (08:05)
05. II. Andantino con moto (05:20)
06. III. Allegro vivace assai (02:55)
Cello Concerto in D major, G. 483:
07. I. Allegro maestoso (07:06)
08. II. Andante lentarello (05:25)
09. III. Allegro e con moto (05:32)
Sinfonia in D minor, G. 506 'La casa del diavolo':
10. I. Andante sostenuto (05:08)
11. II. Andantino con moto (05:54)
12. III. Andante sonstenuto, Allegro assai, con moto (05:49)-

LOG CD09:

Exact Audio Copy V1.0 beta 3 from 29. August 2011
EAC extraction logfile from 7. March 2016, 12:16
Anner Bylsma, Tafelmusik / Boccherini - Cello Concertos, Sinfonias
Used drive : PIONEER BD-RW BDR-207M Adapter: 0 ID: 0
Read mode : Secure
Utilize accurate stream : Yes
Defeat audio cache : Yes
Make use of C2 pointers : No
Read offset correction : 667
Overread into Lead-In and Lead-Out : No
Fill up missing offset samples with silence : Yes
Delete leading and trailing silent blocks : No
Null samples used in CRC calculations : Yes
Used interface : Native Win32 interface for Win NT & 2000
Used output format : User Defined Encoder
Selected bitrate : 128 kBit/s
Quality : High
Add ID3 tag : No
Command line compressor : C:\Program Files\Exact Audio Copy\Flac\flac.exe
Additional command line options : -V -8 -T "Date=%year%" -T "Genre=%genre%" %source%
TOC of the extracted CD
Track | Start | Length | Start sector | End sector
---------------------------------------------------------
1 | 0:00.00 | 7:01.50 | 0 | 31624
2 | 7:01.50 | 4:56.45 | 31625 | 53869
3 | 11:58.20 | 4:06.55 | 53870 | 72374
4 | 16:05.00 | 8:05.42 | 72375 | 108791
5 | 24:10.42 | 5:20.33 | 108792 | 132824
6 | 29:31.00 | 2:55.00 | 132825 | 145949
7 | 32:26.00 | 7:06.00 | 145950 | 177899
8 | 39:32.00 | 5:25.12 | 177900 | 202286
9 | 44:57.12 | 5:32.63 | 202287 | 227249
10 | 50:30.00 | 5:08.00 | 227250 | 250349
11 | 55:38.00 | 5:54.00 | 250350 | 276899
12 | 61:32.00 | 5:49.05 | 276900 | 303079
Range status and errors
Selected range
Filename C:\Program Files\Exact Audio Copy\Flac\Boccherini - Cello Concertos, Sinfonias.wav
Peak level 100.0 %
Extraction speed 7.8 X
Range quality 100.0 %
Test CRC 10C5B9D7
Copy CRC 10C5B9D7
Copy OK
No errors occurred
End of status report
==== Log checksum BE67E49D2079CA0AE58564AFE2A87307B9D6AD956F90679B33948E9C1115DB25 ====

CD10: Boccherini - Cello Concertos, Overture, Octet, Sinfonia - (01:09:07):

Исполнители:
Anner Bylsma, violoncello
Tafelmusik
Jeanne Lamon, music director
Треклист:
01. Overture (Sinfonia) in D major, op. 43, G. 521: Allegro con spirito molto - A... (05:12)
Cello Concerto in D major, G. 476:
02. I. Allegro (06:11)
03. II. Largo (05:00)
04. III. Allegro piacere (03:47)
Octet in G major, op. 38 no. 4, G. 470 'Notturno':
05. I. Andantino amoroso ma no... (06:41)
06. II. Minuetto (04:33)
07. III. Finale: Allegro vivo (04:02)
Cello Concerto in C major, G. 573:
08. I. Maestoso (05:41)
09. II. Largo cantabile (04:15)
10. III. Allegro comodo (05:51)
Sinfonia in C minor, G. 519:
11. I. Allegro vivo assai (06:03)
12. II. Pastorale: Lentarello (04:37)
13. III. Minuetto: Allegro (02:30)
14. IV. Finale: Allegro (04:44)-

LOG CD10:

Exact Audio Copy V1.0 beta 3 from 29. August 2011
EAC extraction logfile from 7. March 2016, 12:45
Anner Bylsma, Tafelmusik / Boccherini - Cello Concertos, Overture, Octet, Sinfonia
Used drive : PIONEER BD-RW BDR-207M Adapter: 0 ID: 0
Read mode : Secure
Utilize accurate stream : Yes
Defeat audio cache : Yes
Make use of C2 pointers : No
Read offset correction : 667
Overread into Lead-In and Lead-Out : No
Fill up missing offset samples with silence : Yes
Delete leading and trailing silent blocks : No
Null samples used in CRC calculations : Yes
Used interface : Native Win32 interface for Win NT & 2000
Used output format : User Defined Encoder
Selected bitrate : 128 kBit/s
Quality : High
Add ID3 tag : No
Command line compressor : C:\Program Files\Exact Audio Copy\Flac\flac.exe
Additional command line options : -V -8 -T "Date=%year%" -T "Genre=%genre%" %source%
TOC of the extracted CD
Track | Start | Length | Start sector | End sector
---------------------------------------------------------
1 | 0:00.00 | 5:12.50 | 0 | 23449
2 | 5:12.50 | 6:12.00 | 23450 | 51349
3 | 11:24.50 | 5:00.00 | 51350 | 73849
4 | 16:24.50 | 3:47.00 | 73850 | 90874
5 | 20:11.50 | 6:41.50 | 90875 | 120999
6 | 26:53.25 | 4:33.50 | 121000 | 141524
7 | 31:27.00 | 4:02.50 | 141525 | 159724
8 | 35:29.50 | 5:41.50 | 159725 | 185349
9 | 41:11.25 | 4:15.50 | 185350 | 204524
10 | 45:27.00 | 5:51.50 | 204525 | 230899
11 | 51:18.50 | 6:03.25 | 230900 | 258149
12 | 57:22.00 | 4:37.00 | 258150 | 278924
13 | 61:59.00 | 2:30.50 | 278925 | 290224
14 | 64:29.50 | 4:44.00 | 290225 | 311524
Range status and errors
Selected range
Filename C:\Program Files\Exact Audio Copy\Flac\Boccherini - Cello Concertos, Overture, Octet, Sinfonia.wav
Peak level 100.0 %
Extraction speed 7.8 X
Range quality 99.9 %
Test CRC DA1071A6
Copy CRC DA1071A6
Copy OK
No errors occurred
End of status report
==== Log checksum BFFC3E853ED6828EA154F0241E08C5E912D74B3843B0C5EF8CDD134BB2D79322 ====
-

Внимание! Раздача ведется путем добавления новых дисков

Внимание! Раздача ведётся путём добавления новых дисков; при каждом добавлении создаётся новый торрент. Чтобы начать докачку нового диска, пользователям необходимо сделать следующее:
(1) остановить скачивание,
(2) удалить старый торрент у себя из клиента (старые диски удалять не надо),
(3) скачать новый торрент и запустить его у себя в клиенте вместо старого, при этом указать клиенту путь в старую папку куда и должно происходить скачивание новых дисков.
Ваш клиент при этом должен произвести хеширование (проверку) старой папки (если не производит сам - помогите ему сделать это), и будет докачивать только те диски которых у вас ещё нет. Старые диски при этом не удаляются, а продолжают раздаваться!
Eсли вы уже удалили старые диски, то предотвратить повторную закачку старых дисков можно, отжав галочку в соответствующих местах при запуске нового торрента. По возможности, желательно не удалять старые диски как можно дольше чтобы релизёр не столько продолжал раздавать старые диски, а смог сконцентрироваться на новых.
-Внимание, торрент-файл обновлен 13.03.2016 в 11:50 по МСК времени, добавлены новые альбомы с 5-10, просьба перекачать торрент-файл заново.
[teatrix.ru].t18441.torrent 
Торрент: Зарегистрирован [ 2016-03-17 00:36 ] · 5648508B9A2666FE698B7A967F0A597D3989DDE5

Скачать .torrent

Скачать

19 KB

Статус: проверено
Скачан: 0 раз
Размер: 2.9 GB
terms.php



Быстрый ответ

Имя:

      
Для отправки сообщений необходимо включить JavaScript
Показать сообщения:    

Текущее время: 05-Дек 17:33

Часовой пояс: UTC + 3


Вы можете начинать темы
Вы можете отвечать на сообщения
Вы не можете редактировать свои сообщения
Вы не можете удалять свои сообщения
Вы не можете голосовать в опросах
Вы не можете прикреплять файлы к сообщениям
Вы можете скачивать файлы