(Classical) L'escolania De Montserrat - Chante La Vierge Marie (Ireneu Segarra) - 2010, FLAC (tracks+.cue) lossless


Статистика раздачи [Обновить пиров]
Размер:  317 MB   |    Зарегистрирован:  8 месяцев 25 дней   |    Скачан:  0 раз

Полного источника не было: Никогда

 
   
 
 
 

[Цитировать]

L'escolania De Montserrat - Chante La Vierge Marie
Жанр: Classical
Год издания диска: 2010
Издатель (лейбл): Jade / BMG / Planet Music Series
Номер по каталогу: 3017100
Аудиокодек: FLAC
Тип рипа: tracks+.cue
Битрейт аудио: lossless
Продолжительность: 69’41"
Источник: собственный рип
Наличие сканов в содержимом раздачи: да
Треклист:
Ireneu Sagarra (1917)
1. Salve Regina “Germinans” 8:02
Antonio Nicolau (1858-1933)
2. Moreneta en sou 4:10
Joseph Rodoreda (1851-1922)
3. Virolai 4:09
Vicente Goicoechea (1854-1916)
4. Ave Maria 3:49
5. Salve Regina 6:52
Angel Rodamilans (1874-1936)
6. Moreneta en sou 4:34
7. Entre Lliris 2:47
8. Canço de Maig 4:25
9. Rosa vera 3:15
10. El Gira – Sol 3:40
11. El Nom de Maria 3:29
12. Salve Montserratina 8:01
13. Magnificat 11:48
Исполнители:
Ireneu Segarra

LOG EAC CD:

Exact Audio Copy V1.0 beta 3 from 29. August 2011
EAC extraction logfile from 3. May 2014, 23:58
Ireneu Segarra / L’Escolania de Montserrat chante la Vierge Marie
Used drive : PIONEER DVD-RW DVR-221L Adapter: 0 ID: 0
Read mode : Secure
Utilize accurate stream : Yes
Defeat audio cache : Yes
Make use of C2 pointers : No
Read offset correction : 6
Overread into Lead-In and Lead-Out : No
Fill up missing offset samples with silence : Yes
Delete leading and trailing silent blocks : No
Null samples used in CRC calculations : Yes
Used interface : Native Win32 interface for Win NT & 2000
Gap handling : Appended to previous track
Used output format : User Defined Encoder
Selected bitrate : 768 kBit/s
Quality : High
Add ID3 tag : No
Command line compressor : C:\Program Files\Exact Audio Copy\Flac\flac.exe
Additional command line options : -6 -V -T "ARTIST=%artist%" -T "TITLE=%title%" -T "ALBUM=%albumtitle%" -T "DATE=%year%" -T "TRACKNUMBER=%tracknr%" -T "GENRE=%genre%" -T "COMMENT=%comment%" -T "ALBUMARTIST=%albuminterpret%" -T "COMPOSER=%composer%" -T "DISCNUMBER=%cdnumber%" -T "TOTALDISCS=%totalcds%" -T "TOTALTRACKS=%numtracks%" %source% -o %dest%
TOC of the extracted CD
Track | Start | Length | Start sector | End sector
---------------------------------------------------------
1 | 0:00.00 | 8:06.07 | 0 | 36456
2 | 8:06.07 | 4:14.20 | 36457 | 55526
3 | 12:20.27 | 4:12.55 | 55527 | 74481
4 | 16:33.07 | 3:52.70 | 74482 | 91951
5 | 20:26.02 | 6:55.60 | 91952 | 123136
6 | 27:21.62 | 4:38.25 | 123137 | 144011
7 | 32:00.12 | 2:51.18 | 144012 | 156854
8 | 34:51.30 | 4:28.62 | 156855 | 177016
9 | 39:20.17 | 3:18.70 | 177017 | 191936
10 | 42:39.12 | 3:43.53 | 191937 | 208714
11 | 46:22.65 | 3:32.57 | 208715 | 224671
12 | 49:55.47 | 8:04.70 | 224672 | 261041
13 | 58:00.42 | 11:48.33 | 261042 | 314174
Track 1
Filename E:\EAC\01 Salve Regina ''Germinans''.wav
Pre-gap length 0:00:02.00
Peak level 80.8 %
Extraction speed 5.4 X
Track quality 100.0 %
Test CRC 5DA2CB52
Copy CRC 5DA2CB52
Track not present in AccurateRip database
Copy OK
Track 2
Filename E:\EAC\02 Moreneta en sou.wav
Pre-gap length 0:00:01.73
Peak level 82.6 %
Extraction speed 4.6 X
Track quality 99.9 %
Test CRC 8AAD5DDA
Copy CRC 8AAD5DDA
Track not present in AccurateRip database
Copy OK
Track 3
Filename E:\EAC\03 Virolai.wav
Pre-gap length 0:00:01.74
Peak level 89.8 %
Extraction speed 6.2 X
Track quality 100.0 %
Test CRC 271147BA
Copy CRC 271147BA
Track not present in AccurateRip database
Copy OK
Track 4
Filename E:\EAC\04 Ave Maria.wav
Pre-gap length 0:00:01.74
Peak level 88.7 %
Extraction speed 6.4 X
Track quality 100.0 %
Test CRC F72F6836
Copy CRC F72F6836
Track not present in AccurateRip database
Copy OK
Track 5
Filename E:\EAC\05 Salve Regina.wav
Pre-gap length 0:00:01.74
Peak level 87.6 %
Extraction speed 7.4 X
Track quality 100.0 %
Test CRC 12B4F9FC
Copy CRC 12B4F9FC
Track not present in AccurateRip database
Copy OK
Track 6
Filename E:\EAC\06 Moreneta en sou.wav
Pre-gap length 0:00:01.73
Peak level 95.4 %
Extraction speed 7.5 X
Track quality 100.0 %
Test CRC 5BD21F67
Copy CRC 5BD21F67
Track not present in AccurateRip database
Copy OK
Track 7
Filename E:\EAC\07 Entre lliris.wav
Pre-gap length 0:00:01.74
Peak level 83.4 %
Extraction speed 7.1 X
Track quality 100.0 %
Test CRC 3C7BB4B0
Copy CRC 3C7BB4B0
Track not present in AccurateRip database
Copy OK
Track 8
Filename E:\EAC\08 Canco de maig.wav
Pre-gap length 0:00:01.74
Peak level 73.7 %
Extraction speed 8.0 X
Track quality 100.0 %
Test CRC D027D51B
Copy CRC D027D51B
Track not present in AccurateRip database
Copy OK
Track 9
Filename E:\EAC\09 Rosa vera.wav
Pre-gap length 0:00:01.73
Peak level 76.6 %
Extraction speed 8.1 X
Track quality 100.0 %
Test CRC B6EF3BA8
Copy CRC B6EF3BA8
Track not present in AccurateRip database
Copy OK
Track 10
Filename E:\EAC\10 El gira-sol.wav
Pre-gap length 0:00:01.74
Peak level 62.6 %
Extraction speed 8.1 X
Track quality 100.0 %
Test CRC 78D2C75F
Copy CRC 78D2C75F
Track not present in AccurateRip database
Copy OK
Track 11
Filename E:\EAC\11 El nom de Maria.wav
Pre-gap length 0:00:01.74
Peak level 89.9 %
Extraction speed 8.5 X
Track quality 100.0 %
Test CRC 96004301
Copy CRC 96004301
Track not present in AccurateRip database
Copy OK
Track 12
Filename E:\EAC\12 Salve Montserratina.wav
Pre-gap length 0:00:01.73
Peak level 99.7 %
Extraction speed 9.8 X
Track quality 100.0 %
Test CRC 914B7E0F
Copy CRC 914B7E0F
Track not present in AccurateRip database
Copy OK
Track 13
Filename E:\EAC\13 Magnificat.wav
Pre-gap length 0:00:01.73
Peak level 99.9 %
Extraction speed 10.6 X
Track quality 100.0 %
Test CRC 3292D25B
Copy CRC 3292D25B
Track not present in AccurateRip database
Copy OK
None of the tracks are present in the AccurateRip database
No errors occurred
End of status report
==== Log checksum 5D412060E98B87042B61F6E5251CE4C5128216B433361781E142BF866CA13D7E ====

LOG (.CUE):

REM GENRE Classical
REM DATE 2010
REM DISCID CD105D0D
REM COMMENT "ExactAudioCopy v1.0b3"
PERFORMER "Ireneu Segarra"
TITLE "L’Escolania de Montserrat chante la Vierge Marie"
FILE "01 Salve Regina ''Germinans''.wav" WAVE
TRACK 01 AUDIO
TITLE "Salve Regina 'Germinans'"
PERFORMER "Ireneu Segarra"
INDEX 01 00:00:00
TRACK 02 AUDIO
TITLE "Moreneta en sou"
PERFORMER "Ireneu Segarra"
INDEX 00 08:04:09
FILE "02 Moreneta en sou.wav" WAVE
INDEX 01 00:00:00
TRACK 03 AUDIO
TITLE "Virolai"
PERFORMER "Ireneu Segarra"
INDEX 00 04:12:21
FILE "03 Virolai.wav" WAVE
INDEX 01 00:00:00
TRACK 04 AUDIO
TITLE "Ave Maria"
PERFORMER "Ireneu Segarra"
INDEX 00 04:10:56
FILE "04 Ave Maria.wav" WAVE
INDEX 01 00:00:00
TRACK 05 AUDIO
TITLE "Salve Regina"
PERFORMER "Ireneu Segarra"
INDEX 00 03:50:71
FILE "05 Salve Regina.wav" WAVE
INDEX 01 00:00:00
TRACK 06 AUDIO
TITLE "Moreneta en sou"
PERFORMER "Ireneu Segarra"
INDEX 00 06:53:62
FILE "06 Moreneta en sou.wav" WAVE
INDEX 01 00:00:00
TRACK 07 AUDIO
TITLE "Entre lliris"
PERFORMER "Ireneu Segarra"
INDEX 00 04:36:26
FILE "07 Entre lliris.wav" WAVE
INDEX 01 00:00:00
TRACK 08 AUDIO
TITLE "Canco de maig"
PERFORMER "Ireneu Segarra"
INDEX 00 02:49:19
FILE "08 Canco de maig.wav" WAVE
INDEX 01 00:00:00
TRACK 09 AUDIO
TITLE "Rosa vera"
PERFORMER "Ireneu Segarra"
INDEX 00 04:26:64
FILE "09 Rosa vera.wav" WAVE
INDEX 01 00:00:00
TRACK 10 AUDIO
TITLE "El gira-sol"
PERFORMER "Ireneu Segarra"
INDEX 00 03:16:71
FILE "10 El gira-sol.wav" WAVE
INDEX 01 00:00:00
TRACK 11 AUDIO
TITLE "El nom de Maria"
PERFORMER "Ireneu Segarra"
INDEX 00 03:41:54
FILE "11 El nom de Maria.wav" WAVE
INDEX 01 00:00:00
TRACK 12 AUDIO
TITLE "Salve Montserratina"
PERFORMER "Ireneu Segarra"
INDEX 00 03:30:59
FILE "12 Salve Montserratina.wav" WAVE
INDEX 01 00:00:00
TRACK 13 AUDIO
TITLE "Magnificat"
PERFORMER "Ireneu Segarra"
INDEX 00 08:02:72
FILE "13 Magnificat.wav" WAVE
INDEX 01 00:00:00
Оффициальный сайт
mp3
[teatrix.ru].t18446.torrent 
Торрент: Зарегистрирован [ 2016-03-17 00:36 ] · 15D177B2C16D5446F98297B5B014C14A5B41E309

Скачать .torrent

Скачать

14 KB

Статус: проверено
Скачан: 0 раз
Размер: 317 MB
terms.php



Быстрый ответ

Имя:

      
Для отправки сообщений необходимо включить JavaScript
Показать сообщения:    

Текущее время: 11-Дек 05:23

Часовой пояс: UTC + 3


Вы можете начинать темы
Вы можете отвечать на сообщения
Вы не можете редактировать свои сообщения
Вы не можете удалять свои сообщения
Вы не можете голосовать в опросах
Вы не можете прикреплять файлы к сообщениям
Вы можете скачивать файлы