(Classical) Kathleen Battle & Wynton Marsalis - Baroque Duet (Anthony Newman, Orchestra of St. Luke's; John Nelson) - 1992, FLAC (tracks+.cue) lossless


 

[Цитировать]

Kathleen Battle & Wynton Marsalis - Baroque Duet
Жанр: Classical
Год издания диска: 1992
Издатель (лейбл): Sony Classical
Номер по каталогу: SK 46672
Аудиокодек: FLAC
Тип рипа: tracks+.cue
Битрейт аудио: lossless
Продолжительность: 65’22"
Источник: собственный рип
Наличие сканов в содержимом раздачи: да
Треклист:
George Frideric Handel (1685-1759)
01. Let the Bright Seraphim from Samson, HWV 57
Alessandro Scarlatti (1660-1725)
from 7 Arie con Tromba Sola:
02. 1. Si suoni la tromba
03. 3. Con voce festiva
04. 4. Rompe Sprezza
05. 6. Mio tesoro per te moro (Aria in forma di Menuet alla Francese)
Su le sponde del Tebro - Cantata a voce sola con Violini e Tromba:
06. 1. Sinfonia. Grave
07. 2. Recitativo
08. 3. Sinfonia - Aria
09. 4. Recitativo
10. 5. Aria. Largo
11. 6. Aria. (Poco mosso, sempre dolce e leggiero) - Ritornello
12. 7. Recitativo
13. 8. Aria - Sinfonia. Grave (da capo)
George Frideric Handel (1685-1759)
14. Eternal Source of Light Divine (Ode for the Birthday of Queen Anne, HWV 74)
Luca Antonio Predieri (1688-1767)
15. Pace una volta from Zenobia
Alessandro Stradella (1644-1682)
Sinfonia avanti il Barcheggio {Part I} in D Major for Trumpet, Strings and B.C.:
16. 1. Spiritosa, e staccata
17. 2. Allegretto-Corrente
18. 3. Canzone
19. 4. Allegro
Johann Sebastian Bach (1685-1750)
20. Aria. Seufzer, Tranen, Kummer, Not from Cantata No. 21 "Ich hatte viel Bekummernis", BWV 21
George Frideric Handel (1685-1759)
21. Alle voci del bronzo guerriero from Cantata No. 19 "O! come chiare e belle" HWV 143
Johann Sebastian Bach (1685-1750)
Cantata No. 51 "Jauchzet Gott in allen Landen", BWV 51:
22. 1. Aria
23. 4. Choral - Alleluja
Исполнители:
Kathleen Battle - Soprano
Wynton Marsalis - Trumpet
Anthony Newman - Organ
Orchestra of St. Luke's
John Nelson

LOG EAC CD:

Exact Audio Copy V1.0 beta 3 from 29. August 2011
EAC extraction logfile from 6. May 2014, 19:30
Kathleen Battle & Wynton Marsalis / Baroque Duet
Used drive : PIONEER DVD-RW DVR-221L Adapter: 0 ID: 0
Read mode : Secure
Utilize accurate stream : Yes
Defeat audio cache : Yes
Make use of C2 pointers : No
Read offset correction : 6
Overread into Lead-In and Lead-Out : No
Fill up missing offset samples with silence : Yes
Delete leading and trailing silent blocks : No
Null samples used in CRC calculations : Yes
Used interface : Native Win32 interface for Win NT & 2000
Gap handling : Appended to previous track
Used output format : User Defined Encoder
Selected bitrate : 768 kBit/s
Quality : High
Add ID3 tag : No
Command line compressor : C:\Program Files\Exact Audio Copy\Flac\flac.exe
Additional command line options : -6 -V -T "ARTIST=%artist%" -T "TITLE=%title%" -T "ALBUM=%albumtitle%" -T "DATE=%year%" -T "TRACKNUMBER=%tracknr%" -T "GENRE=%genre%" -T "COMMENT=%comment%" -T "ALBUMARTIST=%albuminterpret%" -T "COMPOSER=%composer%" -T "DISCNUMBER=%cdnumber%" -T "TOTALDISCS=%totalcds%" -T "TOTALTRACKS=%numtracks%" %source% -o %dest%
TOC of the extracted CD
Track | Start | Length | Start sector | End sector
---------------------------------------------------------
1 | 0:00.00 | 5:32.23 | 0 | 24922
2 | 5:32.23 | 3:37.12 | 24923 | 41209
3 | 9:09.35 | 1:29.48 | 41210 | 47932
4 | 10:39.08 | 1:18.52 | 47933 | 53834
5 | 11:57.60 | 4:46.65 | 53835 | 75349
6 | 16:44.50 | 1:41.10 | 75350 | 82934
7 | 18:25.60 | 0:58.40 | 82935 | 87324
8 | 19:24.25 | 2:53.10 | 87325 | 100309
9 | 22:17.35 | 0:40.65 | 100310 | 103374
10 | 22:58.25 | 2:09.38 | 103375 | 113087
11 | 25:07.63 | 2:38.60 | 113088 | 124997
12 | 27:46.48 | 1:04.40 | 124998 | 129837
13 | 28:51.13 | 2:52.00 | 129838 | 142737
14 | 31:43.13 | 2:53.15 | 142738 | 155727
15 | 34:36.28 | 6:11.55 | 155728 | 183607
16 | 40:48.08 | 1:08.60 | 183608 | 188767
17 | 41:56.68 | 1:33.12 | 188768 | 195754
18 | 43:30.05 | 1:40.40 | 195755 | 203294
19 | 45:10.45 | 1:36.40 | 203295 | 210534
20 | 46:47.10 | 4:14.28 | 210535 | 229612
21 | 51:01.38 | 3:34.32 | 229613 | 245694
22 | 54:35.70 | 4:31.63 | 245695 | 266082
23 | 59:07.58 | 5:56.17 | 266083 | 292799
Track 1
Filename E:\EAC\01 Handel - Let The Bright Seraphim.wav
Pre-gap length 0:00:02.00
Peak level 65.9 %
Extraction speed 4.5 X
Track quality 99.9 %
Test CRC C1423E91
Copy CRC C1423E91
Accurately ripped (confidence 14) [354A9EEE] (AR v2)
Copy OK
Track 2
Filename E:\EAC\02 Scarlatti - Si Suoni La Tromba.wav
Pre-gap length 0:00:01.28
Peak level 61.8 %
Extraction speed 5.5 X
Track quality 100.0 %
Test CRC 240ADAED
Copy CRC 240ADAED
Accurately ripped (confidence 14) [FC522211] (AR v2)
Copy OK
Track 3
Filename E:\EAC\03 Scarlatti - Con Voce Festiva.wav
Peak level 65.5 %
Extraction speed 3.2 X
Track quality 99.8 %
Test CRC D7FC4B51
Copy CRC D7FC4B51
Accurately ripped (confidence 14) [CBE9EDDB] (AR v2)
Copy OK
Track 4
Filename E:\EAC\04 Scarlatti - Rompe Sprezza.wav
Peak level 54.3 %
Extraction speed 2.7 X
Track quality 99.8 %
Test CRC F8B7C0CF
Copy CRC F8B7C0CF
Accurately ripped (confidence 14) [96C22007] (AR v2)
Copy OK
Track 5
Filename E:\EAC\05 Scarlatti - Mio Tesoro Per Te Moro.wav
Peak level 66.1 %
Extraction speed 6.4 X
Track quality 100.0 %
Test CRC B5262EBB
Copy CRC B5262EBB
Accurately ripped (confidence 14) [4F629CE4] (AR v2)
Copy OK
Track 6
Filename E:\EAC\06 Scarlatti - Sinfonia. Grave.wav
Pre-gap length 0:00:04.35
Peak level 42.2 %
Extraction speed 5.5 X
Track quality 100.0 %
Test CRC 0C7E0E21
Copy CRC 0C7E0E21
Accurately ripped (confidence 14) [64453B6C] (AR v2)
Copy OK
Track 7
Filename E:\EAC\07 Scarlatti - Recitativo.wav
Peak level 57.1 %
Extraction speed 4.8 X
Track quality 100.0 %
Test CRC EF83CA8F
Copy CRC EF83CA8F
Accurately ripped (confidence 14) [6A6FD4CD] (AR v2)
Copy OK
Track 8
Filename E:\EAC\08 Scarlatti - Sinfonia - Aria.wav
Peak level 70.7 %
Extraction speed 6.5 X
Track quality 100.0 %
Test CRC 7632F26F
Copy CRC 7632F26F
Accurately ripped (confidence 14) [A00B746C] (AR v2)
Copy OK
Track 9
Filename E:\EAC\09 Scarlatti - Recitativo.wav
Peak level 28.1 %
Extraction speed 4.2 X
Track quality 100.0 %
Test CRC F92578E4
Copy CRC F92578E4
Accurately ripped (confidence 14) [9CAB010B] (AR v2)
Copy OK
Track 10
Filename E:\EAC\10 Scarlatti - Aria. Largo.wav
Peak level 36.8 %
Extraction speed 6.4 X
Track quality 100.0 %
Test CRC 9268D538
Copy CRC 9268D538
Accurately ripped (confidence 14) [D499BCD2] (AR v2)
Copy OK
Track 11
Filename E:\EAC\11 Scarlatti - Aria. Poco Mosso, Sempre Dolce E Leggiero - Ritornello.wav
Peak level 61.6 %
Extraction speed 7.0 X
Track quality 100.0 %
Test CRC 59BABA04
Copy CRC 59BABA04
Accurately ripped (confidence 13) [3EA45DF5] (AR v2)
Copy OK
Track 12
Filename E:\EAC\12 Scarlatti - Recitativo.wav
Peak level 66.8 %
Extraction speed 5.6 X
Track quality 100.0 %
Test CRC A3073CAC
Copy CRC A3073CAC
Accurately ripped (confidence 14) [B7D50194] (AR v2)
Copy OK
Track 13
Filename E:\EAC\13 Scarlatti - Aria - Sinfonia. Grave (Da Capo).wav
Peak level 70.7 %
Extraction speed 5.3 X
Track quality 99.9 %
Test CRC 820148DC
Copy CRC 820148DC
Accurately ripped (confidence 14) [167CDCB9] (AR v2)
Copy OK
Track 14
Filename E:\EAC\14 Handel - Eternal Source Of Light Divine.wav
Pre-gap length 0:00:01.45
Peak level 67.8 %
Extraction speed 6.9 X
Track quality 100.0 %
Test CRC E8037B68
Copy CRC E8037B68
Accurately ripped (confidence 14) [C62DE0CF] (AR v2)
Copy OK
Track 15
Filename E:\EAC\15 Predieri - Pace Una Volta.wav
Pre-gap length 0:00:01.48
Peak level 72.7 %
Extraction speed 8.7 X
Track quality 100.0 %
Test CRC 53672CCB
Copy CRC 53672CCB
Accurately ripped (confidence 13) [3E1C1F83] (AR v2)
Copy OK
Track 16
Filename E:\EAC\16 Stradella - Spiritosa, E Staccata.wav
Pre-gap length 0:00:00.70
Peak level 37.9 %
Extraction speed 6.4 X
Track quality 100.0 %
Test CRC FE1D966D
Copy CRC FE1D966D
Accurately ripped (confidence 14) [1EA4DE6F] (AR v2)
Copy OK
Track 17
Filename E:\EAC\17 Stradella - [Allegrettto - Corrente].wav
Peak level 40.2 %
Extraction speed 7.0 X
Track quality 100.0 %
Test CRC 6D58CAEB
Copy CRC 6D58CAEB
Accurately ripped (confidence 13) [97AE4AA1] (AR v2)
Copy OK
Track 18
Filename E:\EAC\18 Stradella - Canzone.wav
Pre-gap length 0:00:00.17
Peak level 42.8 %
Extraction speed 7.2 X
Track quality 100.0 %
Test CRC 24E41E51
Copy CRC 24E41E51
Accurately ripped (confidence 14) [58770299] (AR v2)
Copy OK
Track 19
Filename E:\EAC\19 Stradella - [Allegro].wav
Peak level 52.6 %
Extraction speed 7.2 X
Track quality 100.0 %
Test CRC AB9FD557
Copy CRC AB9FD557
Accurately ripped (confidence 14) [49672D06] (AR v2)
Copy OK
Track 20
Filename E:\EAC\20 Bach - Seufzer, Tränen, Kummer, Not.wav
Pre-gap length 0:00:01.10
Peak level 58.1 %
Extraction speed 9.2 X
Track quality 100.0 %
Test CRC B4C9DE6D
Copy CRC B4C9DE6D
Accurately ripped (confidence 14) [D2CC416D] (AR v2)
Copy OK
Track 21
Filename E:\EAC\21 Handel - Alle Voci Del Bronzo Guerriero.wav
Pre-gap length 0:00:00.53
Peak level 68.6 %
Extraction speed 7.3 X
Track quality 99.9 %
Test CRC 95DA24FD
Copy CRC 95DA24FD
Accurately ripped (confidence 14) [D33590D6] (AR v2)
Copy OK
Track 22
Filename E:\EAC\22 Bach - Aria- Jauchzet Gott In Allen Landen.wav
Pre-gap length 0:00:01.62
Peak level 100.0 %
Extraction speed 9.7 X
Track quality 100.0 %
Test CRC 9A503737
Copy CRC 9A503737
Accurately ripped (confidence 14) [454972C0] (AR v2)
Copy OK
Track 23
Filename E:\EAC\23 Bach - Chorale- Sei Lob Und Preis Mit Ehren; Alleluja.wav
Peak level 98.8 %
Extraction speed 8.9 X
Track quality 99.9 %
Test CRC F45F40B7
Copy CRC F45F40B7
Accurately ripped (confidence 13) [E4DFA660] (AR v2)
Copy OK
All tracks accurately ripped
No errors occurred
End of status report
==== Log checksum EF1623E622CFB8DF463F3699F3A8631D7C6277D61A66FA8BF2D0DD7C4D8790CA ====

LOG (.CUE):

REM GENRE Classical
REM DATE 1992
REM DISCID 390F4017
REM COMMENT "ExactAudioCopy v1.0b3"
PERFORMER "Kathleen Battle & Wynton Marsalis"
TITLE "Baroque Duet"
FILE "01 Handel - Let The Bright Seraphim.wav" WAVE
TRACK 01 AUDIO
TITLE "Handel - Let The Bright Seraphim"
PERFORMER "Kathleen Battle & Wynton Marsalis"
INDEX 01 00:00:00
TRACK 02 AUDIO
TITLE "Scarlatti - Si Suoni La Tromba"
PERFORMER "Kathleen Battle & Wynton Marsalis"
INDEX 00 05:30:70
FILE "02 Scarlatti - Si Suoni La Tromba.wav" WAVE
INDEX 01 00:00:00
FILE "03 Scarlatti - Con Voce Festiva.wav" WAVE
TRACK 03 AUDIO
TITLE "Scarlatti - Con Voce Festiva"
PERFORMER "Kathleen Battle & Wynton Marsalis"
INDEX 01 00:00:00
FILE "04 Scarlatti - Rompe Sprezza.wav" WAVE
TRACK 04 AUDIO
TITLE "Scarlatti - Rompe Sprezza"
PERFORMER "Kathleen Battle & Wynton Marsalis"
INDEX 01 00:00:00
FILE "05 Scarlatti - Mio Tesoro Per Te Moro.wav" WAVE
TRACK 05 AUDIO
TITLE "Scarlatti - Mio Tesoro Per Te Moro"
PERFORMER "Kathleen Battle & Wynton Marsalis"
INDEX 01 00:00:00
TRACK 06 AUDIO
TITLE "Scarlatti - Sinfonia. Grave"
PERFORMER "Kathleen Battle & Wynton Marsalis"
INDEX 00 04:42:30
FILE "06 Scarlatti - Sinfonia. Grave.wav" WAVE
INDEX 01 00:00:00
FILE "07 Scarlatti - Recitativo.wav" WAVE
TRACK 07 AUDIO
TITLE "Scarlatti - Recitativo"
PERFORMER "Kathleen Battle & Wynton Marsalis"
INDEX 01 00:00:00
FILE "08 Scarlatti - Sinfonia - Aria.wav" WAVE
TRACK 08 AUDIO
TITLE "Scarlatti - Sinfonia - Aria"
PERFORMER "Kathleen Battle & Wynton Marsalis"
INDEX 01 00:00:00
FILE "09 Scarlatti - Recitativo.wav" WAVE
TRACK 09 AUDIO
TITLE "Scarlatti - Recitativo"
PERFORMER "Kathleen Battle & Wynton Marsalis"
INDEX 01 00:00:00
FILE "10 Scarlatti - Aria. Largo.wav" WAVE
TRACK 10 AUDIO
TITLE "Scarlatti - Aria. Largo"
PERFORMER "Kathleen Battle & Wynton Marsalis"
INDEX 01 00:00:00
FILE "11 Scarlatti - Aria. Poco Mosso, Sempre Dolce E Leggiero - Ritornello.wav" WAVE
TRACK 11 AUDIO
TITLE "Scarlatti - Aria. Poco Mosso, Sempre Dolce E Leggiero - Ritornello"
PERFORMER "Kathleen Battle & Wynton Marsalis"
INDEX 01 00:00:00
FILE "12 Scarlatti - Recitativo.wav" WAVE
TRACK 12 AUDIO
TITLE "Scarlatti - Recitativo"
PERFORMER "Kathleen Battle & Wynton Marsalis"
INDEX 01 00:00:00
FILE "13 Scarlatti - Aria - Sinfonia. Grave (Da Capo).wav" WAVE
TRACK 13 AUDIO
TITLE "Scarlatti - Aria - Sinfonia. Grave (Da Capo)"
PERFORMER "Kathleen Battle & Wynton Marsalis"
INDEX 01 00:00:00
TRACK 14 AUDIO
TITLE "Handel - Eternal Source Of Light Divine"
PERFORMER "Kathleen Battle & Wynton Marsalis"
INDEX 00 02:50:30
FILE "14 Handel - Eternal Source Of Light Divine.wav" WAVE
INDEX 01 00:00:00
TRACK 15 AUDIO
TITLE "Predieri - Pace Una Volta"
PERFORMER "Kathleen Battle & Wynton Marsalis"
INDEX 00 02:51:42
FILE "15 Predieri - Pace Una Volta.wav" WAVE
INDEX 01 00:00:00
TRACK 16 AUDIO
TITLE "Stradella - Spiritosa, E Staccata"
PERFORMER "Kathleen Battle & Wynton Marsalis"
INDEX 00 06:10:60
FILE "16 Stradella - Spiritosa, E Staccata.wav" WAVE
INDEX 01 00:00:00
FILE "17 Stradella - [Allegrettto - Corrente].wav" WAVE
TRACK 17 AUDIO
TITLE "Stradella - [Allegrettto - Corrente]"
PERFORMER "Kathleen Battle & Wynton Marsalis"
INDEX 01 00:00:00
TRACK 18 AUDIO
TITLE "Stradella - Canzone"
PERFORMER "Kathleen Battle & Wynton Marsalis"
INDEX 00 01:32:70
FILE "18 Stradella - Canzone.wav" WAVE
INDEX 01 00:00:00
FILE "19 Stradella - [Allegro].wav" WAVE
TRACK 19 AUDIO
TITLE "Stradella - [Allegro]"
PERFORMER "Kathleen Battle & Wynton Marsalis"
INDEX 01 00:00:00
TRACK 20 AUDIO
TITLE "Bach - Seufzer, Tranen, Kummer, Not"
PERFORMER "Kathleen Battle & Wynton Marsalis"
INDEX 00 01:35:30
FILE "20 Bach - Seufzer, Tranen, Kummer, Not.wav" WAVE
INDEX 01 00:00:00
TRACK 21 AUDIO
TITLE "Handel - Alle Voci Del Bronzo Guerriero"
PERFORMER "Kathleen Battle & Wynton Marsalis"
INDEX 00 04:13:50
FILE "21 Handel - Alle Voci Del Bronzo Guerriero.wav" WAVE
INDEX 01 00:00:00
TRACK 22 AUDIO
TITLE "Bach - Aria: Jauchzet Gott In Allen Landen"
PERFORMER "Kathleen Battle & Wynton Marsalis"
INDEX 00 03:32:45
FILE "22 Bach - Aria- Jauchzet Gott In Allen Landen.wav" WAVE
INDEX 01 00:00:00
FILE "23 Bach - Chorale- Sei Lob Und Preis Mit Ehren; Alleluja.wav" WAVE
TRACK 23 AUDIO
TITLE "Bach - Chorale: Sei Lob Und Preis Mit Ehren; Alleluja"
PERFORMER "Kathleen Battle & Wynton Marsalis"
INDEX 01 00:00:00

Другие записи Kathleen Battle на форуме:

Handel - Arias
& Placido Domingo Live in Tokyo 1988
Schubert Lieder
Grace
A Christmas Celebration
& Christopher Parkening - Angels' Glory
& Christopher Parkening - Pleasures of Their Company
Honey and Rue
& Jean-Pierre Rampal Live in Concert
& Jessye Norman - Spirituals in Concert
& von Stade, Marsalis, Previn - A Carnegie Hall Christmas
& Margo Garrett at Carnegie Hall
& James Levine - In Concert (Salzburg Recital)
Classic Kathleen Battle: A Portrait
Bel Canto
French Opera Arias
Mozart Opera Arias
Mozart Exsultate, jubilate Arias
& Itzhak Perlman - The Bach Album
&Wynton Marsalis - Baroque Duet
So Many Stars
Vangelis - Mythodea
Mozart – Cosi Fan Tutte
Mozart – Le nozze di Figaro
Mozart – Die Entfuhrung aus dem Serail
Mozart - Don Giovanni
Mozart – "Great" Mass in C minor CD 2
Mozart - Requiem, Daniel Barenboim
Mozart - Kronungsmesse, KV 317 (Papst Johannes Paul II
Handel – Semele
Handel - Messiah
Haydn - Die Schopfung
Donizetti - L'Elisir d'Amore
Rossini - L'Italiana in Algeri
Rossini - Il signor Bruschino
Rossini - Il Barbiere di Siviglia
Verdi - Don Carlo (James Levine)
Verdi - Un Ballo in Maschera
Gabriel Faure - Requiem, Pavane, Elegie, Apres un reve, Dolly Suite
Poulenc - Gloria. Organ Concerto in G minor. Concert champetre
Poulenc - Gloria, Stabat Mater (Ozawa, Battle)
Video
Mozart - Die Zauberflote
Mozart - Don Giovanni
Mozart - Coronation Mass
Mozart - Cosi fan tutte
Mozart - Cosi fan tutte
Mozart - Le nozze di Figaro
Donizetti - L'Elisir d'Amore
Rossini - Il Barbiere di Siviglia
An Evening with Kathleen Battle and Thomas Hampson
mp3



Показать сообщения:    

Текущее время: 06-Дек 20:57

Часовой пояс: UTC + 3


Вы не можете начинать темы
Вы не можете отвечать на сообщения
Вы не можете редактировать свои сообщения
Вы не можете удалять свои сообщения
Вы не можете голосовать в опросах
Вы не можете прикреплять файлы к сообщениям
Вы не можете скачивать файлы