Профессионалы. "Миражи. Вера Холодная" (Марина Александрова) [1998, Документальный фильм, TVRip]


Статистика раздачи [Обновить пиров]
Размер:  303 MB   |    Зарегистрирован:  8 месяцев 19 дней   |    Скачан:  0 раз

Полного источника не было: Никогда

 
   
 
 
 

[Цитировать]

Профессионалы. "Миражи. Вера Холодная"
Год выпуска: 1998
Страна: Россия
Жанр: Документальный фильм
Продолжительность: 00:27:13
Перевод: Не требуется
Русские субтитры: нет
Оригинальная аудиодорожка: русский
Режиссер: Марина Александрова
Текст читает: Дмитрий Назаров
Телеканал: Россия-К
Описание: О коротком, но блистательном творческом пути легенды русского немого кино Веры Холодной. Использованы вспоминания Юрия Олеши, Александра Вертинского, Владимира Гардина и Алексея Каплера. Романсы Вертинского и "поэзы" Игоря Северянина, в том числе посвященные Вере Холодной, сочетаются с кадрами немых фильмов, в которых снималась актриса.
По мнению Марины Александровой, автора программы "Миражи", от других звезд того времени Холодная отличалась тем, что играла осмысленно. Он не была живым манекеном - она жила ролью, как настоящая большая актриса, всё пропускала через себя. "Нельзя быть обезьянкой, повторяющей указку режиссёра, - говорила в одном из интервью Вера Холодная. В каждой роли нужно быть иной. Моя мечта – роли трагические, вроде Маргариты Готье".
Идея объединить в программе о Холодной кадры из немых фильмов с её участием ("Жизнь за жизнь", "Миражи", "Молчи, грусть, молчи", "Дети века", "Последнее танго") и романсы Вертинского, поэзию Игоря Северянина и музыку Эдуарда Артемьева, воспоминания современников (которые читает актер МХТ им. Чехова, народный артист России Дмитрий Назаров) родилась у Марины Александровой задолго до 1998 года, когда "Миражи" были впервые показаны на телеканале "Культура". "Работа над передачей затянулась на много лет: я постоянно думала об этой программе, долго собирала материал в "Белых столбах", - рассказывает Александрова. – Мне кажется, "Миражи" передают прекрасный и одновременно печальный, как последние осенние листья, дух того времени - романтической эпохи Серебряного века. Мне хотелось рассказать в программе о дружбе Вертинского и Холодной, их возвышенном творческом союзе. Наверное, Александр Николаевич был влюблён в неё. Но не более того, потому что она была удивительно чистым существом".
Релиз клуба "Феникс"
Рип: GreifeR (грейфер), медикус
качество: TVRip
формат: MKV
Видео: AVC H264; 672x528; 1300 kbps; 25 fps
Аудио: AC-3; CBR; 256 kbps; 48,0 kHz; 2 ch

MediaInfo

Уникальный идентификатор                 : 203107800046319587807890341677635312680 (0x98CD23B008247FD89284980754499C28)
Полное имя : Prof.Mirazhi.Vera.Holodnaya.1998.h264.TVRip.fenix.mkv
Формат : Matroska
Версия формата : Version 2
Размер файла : 303 Мбайт
Продолжительность : 27 м.
Общий поток : 1557 Кбит/сек
Дата кодирования : UTC 2014-04-27 17:39:06
Программа кодирования : mkvmerge v3.4.0 ('Rapunzel') сборка от May 15 2010 09:38:20
Библиотека кодирования : libebml v0.8.0 + libmatroska v0.9.0
Видео
Идентификатор : 1
Формат : AVC
Формат/Информация : Advanced Video Codec
Профиль формата : High@L4.0
Параметр CABAC формата : Да
Параметр ReFrames формата : 16 кадров
Идентификатор кодека : V_MPEG4/ISO/AVC
Продолжительность : 27 м.
Битрейт : 1300 Кбит/сек
Ширина : 672 пикселя
Высота : 528 пикселей
Соотношение сторон : 1,273
Режим частоты кадров : Постоянный
Частота кадров : 25,000 кадров/сек
Цветовое пространство : YUV
Субдискретизация насыщенности : 4:2:0
Битовая глубина : 8 бит
Тип развёртки : Прогрессивная
Бит/(Пиксели*Кадры) : 0.147
Размер потока : 247 Мбайт (82%)
Библиотека кодирования : x264 core 125 r2208 d9d2288
Настройки программы : cabac=1 / ref=16 / deblock=1:-2:-1 / analyse=0x3:0x133 / me=umh / subme=10 / psy=1 / psy_rd=1.00:0.20 / mixed_ref=1 / me_range=24 / chroma_me=1 / trellis=2 / 8x8dct=1 / cqm=0 / deadzone=21,11 / fast_pskip=1 / chroma_qp_offset=-3 / threads=3 / lookahead_threads=1 / sliced_threads=0 / nr=0 / decimate=1 / interlaced=0 / bluray_compat=0 / constrained_intra=0 / bframes=8 / b_pyramid=2 / b_adapt=2 / b_bias=0 / direct=3 / weightb=1 / open_gop=0 / weightp=2 / keyint=250 / keyint_min=25 / scenecut=40 / intra_refresh=0 / rc_lookahead=60 / rc=2pass / mbtree=1 / bitrate=1300 / ratetol=1.0 / qcomp=0.60 / qpmin=0 / qpmax=69 / qpstep=4 / cplxblur=20.0 / qblur=0.5 / ip_ratio=1.40 / aq=1:1.00
Язык : English
Default : Да
Forced : Нет
Аудио
Идентификатор : 2
Формат : AC-3
Формат/Информация : Audio Coding 3
Расширение режима : CM (complete main)
Параметр Endianness формата : Big
Идентификатор кодека : A_AC3
Продолжительность : 27 м.
Вид битрейта : Постоянный
Битрейт : 256 Кбит/сек
Каналы : 2 канала
Расположение каналов : Front: L R
Частота : 48,0 КГц
Битовая глубина : 16 бит
Метод сжатия : С потерями
Размер потока : 49,8 Мбайт (16%)
Заголовок : rus
Язык : Russian
Default : Да
Forced : Нет

Скриншоты


[teatrix.ru].t18455.torrent 
Торрент: Зарегистрирован [ 2016-03-17 00:35 ] · 3E31A045A906FC4EACDDCF956BBD471B9668AA79

Скачать .torrent

Скачать

12 KB

Статус: проверено
Скачан: 0 раз
Размер: 303 MB
terms.php



Показать сообщения:    

Текущее время: 05-Дек 21:38

Часовой пояс: UTC + 3


Вы не можете начинать темы
Вы не можете отвечать на сообщения
Вы не можете редактировать свои сообщения
Вы не можете удалять свои сообщения
Вы не можете голосовать в опросах
Вы не можете прикреплять файлы к сообщениям
Вы можете скачивать файлы