(Classical) W.A. Mozart Edition: Symphonies 33, 36, 38-41; Requiem; Piano Concertos 21 & 27; Violin Sonatas (Demus, Immerseel, Collegium Aureum, Smithsonian Chamber Orchestra, Schroeder, Maier) [10CD Box Set] - 2013, FLAC (image+.cue) lossless


Статистика раздачи [Обновить пиров]
Размер:  2.87 GB   |    Зарегистрирован:  8 месяцев 22 дня   |    Скачан:  1 раз

Полного источника не было: 18 дней

 
   
 
 
 

[Цитировать]

W.A. Mozart Edition
Жанр: Classical
Страна-производитель диска: EU
Год издания: 2013
Издатель (лейбл): DHM / Sony Music
Номер по каталогу: 8876544341
Аудиокодек: FLAC
Тип рипа: image+.cue
Битрейт аудио: lossless
Продолжительность: 10 CD, 10:27:08
Источник: собственный рип
Наличие сканов в содержимом раздачи: да

CD 01 - Sinfonia Concertante KV 364, Concertone KV 190 (Jaap Schroeder) (57’32)

Треклист:
Sinfonia concertante in E flat major, KV 364 (320d)
01. I. Allegro maestoso [00:13:13]
02. II. Andante [00:09:56]
03. III. Presto [00:06:37]
Concertone in C major, KV 190 (186e)
04. I. Allegro spiritoso [00:08:12]
05. II. Andante grazioso [00:10:41]
06. III. Vivace [00:08:50]
Исполнители:
Jaap Schroeder violin, Marilyn McDonald violin, Stephen Hammer oboe, Kenneth Slowik violoncello
Smithsonian Chamber Orchestra
Jaap Schroeder, conductor
(Recording: March 1986, Annapolis, Maryland)

LOG EAC CD1:

Exact Audio Copy V1.0 beta 3 from 29. August 2011
EAC extraction logfile from 8. May 2014, 12:49
Jaap Schroeder - Smithsonian Chamber Orchestra / Mozart - Sinfonia Concertante KV 364, Concertone KV 190
Used drive : PIONEER DVD-RW DVR-218L Adapter: 0 ID: 1
Read mode : Secure
Utilize accurate stream : Yes
Defeat audio cache : Yes
Make use of C2 pointers : No
Read offset correction : 6
Overread into Lead-In and Lead-Out : No
Fill up missing offset samples with silence : Yes
Delete leading and trailing silent blocks : No
Null samples used in CRC calculations : Yes
Used interface : Native Win32 interface for Win NT & 2000
Used output format : User Defined Encoder
Selected bitrate : 128 kBit/s
Quality : High
Add ID3 tag : No
Command line compressor : C:\Program Files\Exact Audio Copy\Flac\flac.exe
Additional command line options : -V -8 -T "Date=%year%" -T "Genre=%genre%" %source%
TOC of the extracted CD
Track | Start | Length | Start sector | End sector
---------------------------------------------------------
1 | 0:00.00 | 13:13.52 | 0 | 59526
2 | 13:13.52 | 9:56.43 | 59527 | 104269
3 | 23:10.20 | 6:37.45 | 104270 | 134089
4 | 29:47.65 | 8:12.35 | 134090 | 171024
5 | 38:00.25 | 10:41.25 | 171025 | 219124
6 | 48:41.50 | 8:50.25 | 219125 | 258899
Range status and errors
Selected range
Filename C:\Program Files\Exact Audio Copy\Flac\Mozart - Sinfonia Concertante KV 364, Concertone KV 190.wav
Peak level 80.6 %
Extraction speed 1.8 X
Range quality 100.0 %
Test CRC 5982B934
Copy CRC 5982B934
Copy OK
No errors occurred
End of status report
==== Log checksum A572CB08DEDCF2C43E9B3EFD014E367FDECA816B3D7AB5A4A96B3A5C218F842E ====

CD 02 - Eine Kleine Nachtmusik KV 525, Divertimenti KV 247 & 205 (72'39)

Треклист:
Divertimento 'Erste Lodronsche Nachtmusik' in F major, KV 247
01. I. Allegro [00:08:10]
02. II. Andante grazioso [00:03:53]
03. III. Menuetto [00:04:12]
04. IV. Adagio [00:05:05]
05. V. Menuetto [00:03:52]
06. VI. Andante - Allegro assai [00:06:22]
Divertimento in D major for violin, viola, double bass, bassoon & 2 horns, KV 205
07. I. Largo - Allegro [00:04:53]
08. II. Menuetto I [00:03:05]
09. III. Adagio [00:06:23]
10. IV. Menuetto II [00:03:10]
11. V. Finale. Presto [00:03:46]
'Eine Kleine Nachtmusik' in G major, KV 525
12. I. Allegro [00:05:49]
13. II. Romance. Andante [00:06:10]
14. III. Menuetto. Allegretto [00:02:13]
15. IV. Rondo. Allegretto [00:05:28]
Исполнители:
Collegium Aureum, Franzjosef Maier
(Recording: 1975, Cedernsaal, Schloss Kirchheim (KV 525)
1975, Jagdsaal, Schloss Schwetzingen (KV 205)
1964, Cedernsaal, Schloss Kirchheim (KV 247)

LOG EAC CD2:

Exact Audio Copy V1.0 beta 3 from 29. August 2011
EAC extraction logfile from 8. May 2014, 14:22
Collegium Aureum - Franzjosef Maier / Mozart - Eine Kleine Nachtmusik KV 525, Divertimenti KV 247, 205
Used drive : PIONEER DVD-RW DVR-218L Adapter: 0 ID: 1
Read mode : Secure
Utilize accurate stream : Yes
Defeat audio cache : Yes
Make use of C2 pointers : No
Read offset correction : 6
Overread into Lead-In and Lead-Out : No
Fill up missing offset samples with silence : Yes
Delete leading and trailing silent blocks : No
Null samples used in CRC calculations : Yes
Used interface : Native Win32 interface for Win NT & 2000
Used output format : User Defined Encoder
Selected bitrate : 128 kBit/s
Quality : High
Add ID3 tag : No
Command line compressor : C:\Program Files\Exact Audio Copy\Flac\flac.exe
Additional command line options : -V -8 -T "Date=%year%" -T "Genre=%genre%" %source%
TOC of the extracted CD
Track | Start | Length | Start sector | End sector
---------------------------------------------------------
1 | 0:00.00 | 8:10.20 | 0 | 36769
2 | 8:10.20 | 3:53.67 | 36770 | 54311
3 | 12:04.12 | 4:12.35 | 54312 | 73246
4 | 16:16.47 | 5:05.25 | 73247 | 96146
5 | 21:21.72 | 3:52.40 | 96147 | 113586
6 | 25:14.37 | 6:22.63 | 113587 | 142299
7 | 31:37.25 | 4:53.55 | 142300 | 164329
8 | 36:31.05 | 3:05.35 | 164330 | 178239
9 | 39:36.40 | 6:23.65 | 178240 | 207029
10 | 46:00.30 | 3:10.32 | 207030 | 221311
11 | 49:10.62 | 3:46.10 | 221312 | 238271
12 | 52:56.72 | 5:49.00 | 238272 | 264446
13 | 58:45.72 | 6:10.68 | 264447 | 292264
14 | 64:56.65 | 2:13.47 | 292265 | 302286
15 | 67:10.37 | 5:28.68 | 302287 | 326954
Range status and errors
Selected range
Filename C:\Program Files\Exact Audio Copy\Flac\Mozart - Eine Kleine Nachtmusik KV 525, Divertimenti KV 247, 205.wav
Peak level 99.0 %
Extraction speed 2.0 X
Range quality 100.0 %
Test CRC 457B00AA
Copy CRC 457B00AA
Copy OK
No errors occurred
End of status report
==== Log checksum 643F7018245A3753AE9D7CFCCC1ECF2C8BF4539C4038E61D4F4A111247E1E49B ====

CD 03 - Symphonies Nos.33, 35 & 36 (74'20)

Треклист:
Symphony No.33 in B flat major, KV 319
01. I. Allegro assai [00:07:04]
02. II. Andante moderato [00:04:57]
03. III. Menuetto [00:03:24]
04. IV. Finale: Allegro assai [00:06:53]
Symphony No.35 'Haffner' in D major, KV 385
05. I. Alegro con spirito [00:05:34]
06. II. Andante [00:06:08]
07. III. Menuett - Trio [00:03:17]
08. IV. Finale: Presto [00:03:58]
Symphony No.36 'Linzer' in C major, KV 425
09. I. Adagio - Allegro spiritoso [00:11:31]
10. II. Andante [00:09:54]
11. III. Menuett - Trio [00:03:37]
12. IV. Presto [00:07:57]
Исполнители:
Collegium Aureum, Franzjosef Maier
(Recording: 1972 (KV 319), 1980 (KV 385, 425), Cedernsaal, Schloss Kirchheim

LOG EAC CD3:

Exact Audio Copy V1.0 beta 3 from 29. August 2011
EAC extraction logfile from 8. May 2014, 17:01
Collegium Aureum, Franzjosef Maier / Mozart - Symphonies 33, 35, 36
Used drive : PIONEER DVD-RW DVR-218L Adapter: 0 ID: 1
Read mode : Secure
Utilize accurate stream : Yes
Defeat audio cache : Yes
Make use of C2 pointers : No
Read offset correction : 6
Overread into Lead-In and Lead-Out : No
Fill up missing offset samples with silence : Yes
Delete leading and trailing silent blocks : No
Null samples used in CRC calculations : Yes
Used interface : Native Win32 interface for Win NT & 2000
Used output format : User Defined Encoder
Selected bitrate : 128 kBit/s
Quality : High
Add ID3 tag : No
Command line compressor : C:\Program Files\Exact Audio Copy\Flac\flac.exe
Additional command line options : -V -8 -T "Date=%year%" -T "Genre=%genre%" %source%
TOC of the extracted CD
Track | Start | Length | Start sector | End sector
---------------------------------------------------------
1 | 0:00.00 | 7:04.35 | 0 | 31834
2 | 7:04.35 | 4:57.47 | 31835 | 54156
3 | 12:02.07 | 3:24.55 | 54157 | 69511
4 | 15:26.62 | 6:53.45 | 69512 | 100531
5 | 22:20.32 | 5:34.30 | 100532 | 125611
6 | 27:54.62 | 6:08.28 | 125612 | 153239
7 | 34:03.15 | 3:17.45 | 153240 | 168059
8 | 37:20.60 | 3:58.27 | 168060 | 185936
9 | 41:19.12 | 11:31.13 | 185937 | 237774
10 | 52:50.25 | 9:54.00 | 237775 | 282324
11 | 62:44.25 | 3:37.52 | 282325 | 298651
12 | 66:22.02 | 7:57.40 | 298652 | 334466
Range status and errors
Selected range
Filename C:\Program Files\Exact Audio Copy\Flac\Mozart - Symphonies 33, 35, 36.wav
Peak level 98.9 %
Extraction speed 2.0 X
Range quality 100.0 %
Test CRC 5A074949
Copy CRC 5A074949
Copy OK
No errors occurred
End of status report
==== Log checksum D2C1A1C80D86A6D29E421B6AAB6DFC5B7364B0FA77F259B8A0A82A5EDDD4487E ====

CD 04 - Symphonies Nos.38 & 39, Rondo KV 373 (69'30)

Треклист:
Symphony No.38 'Prague' in D major, KV 504
01. I. Adagio - Allegro [00:13:36]
02. II. Andante [00:11:35]
03. III. Finale: Presto [00:08:48]
Symphony No.39 in E flat major, KV 543
04. I. Adagio [00:10:44]
05. II. Andante con moto [00:08:01]
06. III. Menuetto: Allegretto [00:03:59]
07. IV. Finale: Allegro [00:05:42]
Rondo in C major, KV 373
08. Allegretto grazioso [00:07:02]
Исполнители:
Collegium Aureum, Franzjosef Maier
(Recording: 1977 (KV 373) & 1978 (KV 504, 543), Cedernsaal, Schloss Kirchheim

LOG EAC CD4:

Exact Audio Copy V1.0 beta 3 from 29. August 2011
EAC extraction logfile from 12. May 2014, 16:48
Collegium Aureum, Franzjosef Maier / Mozart - Symphonies 38 & 39, Rondo KV 373
Used drive : PIONEER DVD-RW DVR-218L Adapter: 0 ID: 1
Read mode : Secure
Utilize accurate stream : Yes
Defeat audio cache : Yes
Make use of C2 pointers : No
Read offset correction : 6
Overread into Lead-In and Lead-Out : No
Fill up missing offset samples with silence : Yes
Delete leading and trailing silent blocks : No
Null samples used in CRC calculations : Yes
Used interface : Native Win32 interface for Win NT & 2000
Used output format : User Defined Encoder
Selected bitrate : 128 kBit/s
Quality : High
Add ID3 tag : No
Command line compressor : C:\Program Files\Exact Audio Copy\Flac\flac.exe
Additional command line options : -V -8 -T "Date=%year%" -T "Genre=%genre%" %source%
TOC of the extracted CD
Track | Start | Length | Start sector | End sector
---------------------------------------------------------
1 | 0:00.00 | 13:36.20 | 0 | 61219
2 | 13:36.20 | 11:35.25 | 61220 | 113369
3 | 25:11.45 | 8:48.32 | 113370 | 153001
4 | 34:00.02 | 10:44.13 | 153002 | 201314
5 | 44:44.15 | 8:01.30 | 201315 | 237419
6 | 52:45.45 | 3:59.32 | 237420 | 255376
7 | 56:45.02 | 5:42.40 | 255377 | 281066
8 | 62:27.42 | 7:02.65 | 281067 | 312781
Range status and errors
Selected range
Filename C:\Program Files\Exact Audio Copy\Flac\Mozart - Symphonies 38 & 39, Rondo KV 373.wav
Peak level 98.9 %
Extraction speed 1.9 X
Range quality 100.0 %
Test CRC B43BB2ED
Copy CRC B43BB2ED
Copy OK
No errors occurred
End of status report
==== Log checksum FFA7D6E6CD68EF796D93005E66DDA426EFF95A754C4320030BD536224ABBF697 ====

CD 05 - Symphonies Nos.40 & 41 (64'50)

Треклист:
Symphony No.40 in G minor, KV 550
01. I. Molto allegro [00:07:46]
02. II. Andante [00:08:21]
03. III. Menuetto: Allegretto [00:05:06]
04. IV. Allegro assai [00:06:52]
Symphony No.41 'Jupiter' in C major, KV 551
05. I. Allegro vivace [00:11:54]
06. II. Andante cantabile [00:10:55]
07. III. Menuetto: Allegretto [00:05:14]
08. IV. Molto allegro [00:08:37]
Исполнители:
Collegium Aureum, Franzjosef Maier
(Recording: 1972 (KV 550), 1977 (KV 551), Cedernsaal, Schloss Kirchheim

LOG EAC CD5:

Exact Audio Copy V1.0 beta 3 from 29. August 2011
EAC extraction logfile from 13. May 2014, 15:38
Franzjosef Maier - Collegium Aureum / Mozart - Symphonies Nos. 40 & 41
Used drive : PIONEER DVD-RW DVR-218L Adapter: 0 ID: 1
Read mode : Secure
Utilize accurate stream : Yes
Defeat audio cache : Yes
Make use of C2 pointers : No
Read offset correction : 6
Overread into Lead-In and Lead-Out : No
Fill up missing offset samples with silence : Yes
Delete leading and trailing silent blocks : No
Null samples used in CRC calculations : Yes
Used interface : Native Win32 interface for Win NT & 2000
Used output format : User Defined Encoder
Selected bitrate : 128 kBit/s
Quality : High
Add ID3 tag : No
Command line compressor : C:\Program Files\Exact Audio Copy\Flac\flac.exe
Additional command line options : -V -8 -T "Date=%year%" -T "Genre=%genre%" %source%
TOC of the extracted CD
Track | Start | Length | Start sector | End sector
---------------------------------------------------------
1 | 0:00.00 | 7:46.37 | 0 | 34986
2 | 7:46.37 | 8:21.43 | 34987 | 72604
3 | 16:08.05 | 5:06.52 | 72605 | 95606
4 | 21:14.57 | 6:52.38 | 95607 | 126544
5 | 28:07.20 | 11:54.12 | 126545 | 180106
6 | 40:01.32 | 10:55.68 | 180107 | 229299
7 | 50:57.25 | 5:14.70 | 229300 | 252919
8 | 56:12.20 | 8:37.47 | 252920 | 291741
Range status and errors
Selected range
Filename C:\Program Files\Exact Audio Copy\Flac\Mozart - Symphonies Nos. 40 & 41.wav
Peak level 98.9 %
Extraction speed 1.9 X
Range quality 100.0 %
Test CRC 6B91AD86
Copy CRC 6B91AD86
Copy OK
No errors occurred
End of status report
==== Log checksum 095BA65394587A8D41DA8D02243CAD15AD9D7A1504448CF922B113331756CE26 ====

CD 06 - Serenade No.10 KV 361 'Gran Partita' (50'02)

Треклист:
Serenade No.10 'Gran Partita' in B flat major
01. I. Largo - Molto allegro [00:09:57]
02. II. Menuetto - Trio I & II [00:09:00]
03. III. Adagio [00:05:59]
04. IV. Menuetto. Alegretto - Trio I & II [00:05:06]
05. V. Romanze. Adagio - Allegretto - Adagio [00:06:18]
06. VI. Tema con 6 variazione [00:10:03]
07. VII. Rondo. Allegro molto [00:03:35]
Исполнители:
Members of the Collegium Aureum
(Recording: February 21 & 22, 1981, Evangelische Kirche Eckenhagen

LOG EAC CD6:

Exact Audio Copy V1.0 beta 3 from 29. August 2011
EAC extraction logfile from 14. May 2014, 15:54
Collegium Aureum / Mozart - Serenade KV 361 "Gran Partita"
Used drive : PIONEER DVD-RW DVR-218L Adapter: 0 ID: 1
Read mode : Secure
Utilize accurate stream : Yes
Defeat audio cache : Yes
Make use of C2 pointers : No
Read offset correction : 6
Overread into Lead-In and Lead-Out : No
Fill up missing offset samples with silence : Yes
Delete leading and trailing silent blocks : No
Null samples used in CRC calculations : Yes
Used interface : Native Win32 interface for Win NT & 2000
Used output format : User Defined Encoder
Selected bitrate : 128 kBit/s
Quality : High
Add ID3 tag : No
Command line compressor : C:\Program Files\Exact Audio Copy\Flac\flac.exe
Additional command line options : -V -8 -T "Date=%year%" -T "Genre=%genre%" %source%
TOC of the extracted CD
Track | Start | Length | Start sector | End sector
---------------------------------------------------------
1 | 0:00.00 | 9:57.65 | 0 | 44839
2 | 9:57.65 | 8:59.73 | 44840 | 85337
3 | 18:57.63 | 5:59.12 | 85338 | 112274
4 | 24:57.00 | 5:06.60 | 112275 | 135284
5 | 30:03.60 | 6:18.65 | 135285 | 163699
6 | 36:22.50 | 10:03.65 | 163700 | 208989
7 | 46:26.40 | 3:35.60 | 208990 | 225174
Range status and errors
Selected range
Filename C:\Program Files\Exact Audio Copy\Flac\Mozart - Serenade KV 361 ''Gran Partita''.wav
Peak level 91.9 %
Extraction speed 1.7 X
Range quality 100.0 %
Test CRC 7C981038
Copy CRC 7C981038
Copy OK
No errors occurred
End of status report
==== Log checksum 47E2AF312846E8D8559C3F82186D8E70A3A1068559950ACA4A8D86084E90C0DF ====

CD 07 - Sonatas Op.2 For Violin And Piano (54'03)

Треклист:
Sonata for violin and piano No.1 in F major, KV 376
01. I. Allegro [00:05:05]
02. II. Andante [00:06:12]
03. III. Rondeau. Allegretto grazioso [00:05:57]
Sonata for violin and piano No.2 in C major, KV 296
04. I. Allegro vivace [00:06:42]
05. II. Andante sostenuto [00:06:02]
06. III. Rondeau. Allegro [00:04:39]
Sonata for violin and piano No.3 in F major, KV 377
07. I. Allegro [00:03:58]
08. II. Thema. Andante - Variatio 1-4 [00:09:28]
09. III. Tempo di Minuetto [00:05:56]
Исполнители:
Jaap Schroeder violin, Jos Van Immerseel piano
(Recording: February 1-6, 1982, Wenkenhof Riehen / Basel)

LOG EAC CD7:

Exact Audio Copy V1.0 beta 3 from 29. August 2011
EAC extraction logfile from 13. May 2014, 13:27
Jaap Schroder, Jos van Immerseel / Mozart - Violin Sonatas Op.2
Used drive : PIONEER DVD-RW DVR-218L Adapter: 0 ID: 1
Read mode : Secure
Utilize accurate stream : Yes
Defeat audio cache : Yes
Make use of C2 pointers : No
Read offset correction : 6
Overread into Lead-In and Lead-Out : No
Fill up missing offset samples with silence : Yes
Delete leading and trailing silent blocks : No
Null samples used in CRC calculations : Yes
Used interface : Native Win32 interface for Win NT & 2000
Used output format : User Defined Encoder
Selected bitrate : 128 kBit/s
Quality : High
Add ID3 tag : No
Command line compressor : C:\Program Files\Exact Audio Copy\Flac\flac.exe
Additional command line options : -V -8 -T "Date=%year%" -T "Genre=%genre%" %source%
TOC of the extracted CD
Track | Start | Length | Start sector | End sector
---------------------------------------------------------
1 | 0:00.00 | 5:05.48 | 0 | 22922
2 | 5:05.48 | 6:12.50 | 22923 | 50872
3 | 11:18.23 | 5:57.00 | 50873 | 77647
4 | 17:15.23 | 6:42.37 | 77648 | 107834
5 | 23:57.60 | 6:02.63 | 107835 | 135047
6 | 30:00.48 | 4:39.65 | 135048 | 156037
7 | 34:40.38 | 3:58.37 | 156038 | 173924
8 | 38:39.00 | 9:28.10 | 173925 | 216534
9 | 48:07.10 | 5:56.13 | 216535 | 243247
Range status and errors
Selected range
Filename C:\Program Files\Exact Audio Copy\Flac\Mozart - Violin Sonatas Op.2.wav
Peak level 70.3 %
Extraction speed 1.8 X
Range quality 99.9 %
Test CRC 698C0FBC
Copy CRC 698C0FBC
Copy OK
No errors occurred
End of status report
==== Log checksum 94F482FB78770E6C2322B03CB45B8E4267F8FBC74E75A163E1D77FFE3C14356A ====

CD 08 - Piano Concertos Nos.21 & 27 (59'10)

Треклист:
Concerto for piano, flute, 2 oboes, 2 bassoons, 2 horns, 2 trumpets 'clarini', timpani & strings No.21 in C major, KV 467
01. I. Allegro [00:14:29]
02. II. Andante [00:07:29]
03. III. Allegro vivace assai [00:06:38]
Concerto for piano, flute, 2 oboes, 2 bassoons, 2 horns & strings No.27 in B flat major, KV 595
04. I. Allegro [00:13:47]
05. II. Larghetto [00:07:34]
06. III. Allegro [00:09:11]
Исполнители:
Jörg Demus (fortepiano), Collegium Aureum
(Recording: June 1975 (KV 467) - July 1969 (KV 595), Cedernsaal, Schloss Kirchheim)

LOG EAC CD8:

Exact Audio Copy V1.0 beta 3 from 29. August 2011
EAC extraction logfile from 14. May 2014, 11:30
Jorg Demus, Collegium Aureum / Mozart - Klavierkonzerte Nr. 21 & 27
Used drive : PIONEER DVD-RW DVR-218L Adapter: 0 ID: 1
Read mode : Secure
Utilize accurate stream : Yes
Defeat audio cache : Yes
Make use of C2 pointers : No
Read offset correction : 6
Overread into Lead-In and Lead-Out : No
Fill up missing offset samples with silence : Yes
Delete leading and trailing silent blocks : No
Null samples used in CRC calculations : Yes
Used interface : Native Win32 interface for Win NT & 2000
Used output format : User Defined Encoder
Selected bitrate : 128 kBit/s
Quality : High
Add ID3 tag : No
Command line compressor : C:\Program Files\Exact Audio Copy\Flac\flac.exe
Additional command line options : -V -8 -T "Date=%year%" -T "Genre=%genre%" %source%
TOC of the extracted CD
Track | Start | Length | Start sector | End sector
---------------------------------------------------------
1 | 0:00.32 | 14:29.60 | 32 | 65266
2 | 14:30.17 | 7:29.23 | 65267 | 98964
3 | 21:59.40 | 6:38.67 | 98965 | 128881
4 | 28:38.32 | 13:47.40 | 128882 | 190946
5 | 42:25.72 | 7:33.73 | 190947 | 224994
6 | 49:59.70 | 9:11.10 | 224995 | 266329
Range status and errors
Selected range
Filename C:\Program Files\Exact Audio Copy\Flac\Mozart - Klavierkonzerte Nr. 21 & 27.wav
Peak level 90.6 %
Extraction speed 1.8 X
Range quality 99.9 %
Test CRC 84A64F29
Copy CRC 84A64F29
Copy OK
No errors occurred
End of status report
==== Log checksum 2563FC4443595FB7695161E6A9AC0C7AC6EA57BFA63D23E64E84E34D279368B6 ====

CD 09 - Requiem KV 626 (50'55)

Треклист:
Requiem in D minor, KV 626
(New instrumentation by Franz Beyer, Edition Eulenburg, Zürich)
01. I. Introitus: Requiem Aeternam [00:04:51]
02. II. Kyrie Eleison [00:02:36]
03. III. Dies Irae [00:01:53]
04. IV. Tuba Mirum [00:03:28]
05. V. Rex Tremendae [00:02:07]
06. VI. Recordare [00:05:51]
07. VII. Confutatis [00:02:20]
08. VIII. Lacrimosa [00:03:25]
09. IX. Domine Jesu [00:03:59]
10. X. Hostias [00:04:27]
11. XI. Sanctus [00:01:37]
12. XII. Benedictus [00:05:23]
13. XIII. Agnus Dei [00:03:08]
14. XIV. Lux Aeternam [00:05:45]
Исполнители:
Hans Buchheirl soprano,
Mario Krämer alto,
Werner Krenn tenor,
Barry McDaniel baritone
Tölzer Knabenchor, Franzjosef Maier concertmaster, Gerhard Schmidt-Gaden direction
(Recording: 1974, Lengries, Pfarrkirche)

LOG EAC CD9:

Exact Audio Copy V1.0 beta 3 from 29. August 2011
EAC extraction logfile from 19. May 2014, 15:57
Tölzer Knabenchor, Collegium Aureum / Mozart - Requiem KV 626
Used drive : PIONEER DVD-RW DVR-218L Adapter: 0 ID: 1
Read mode : Secure
Utilize accurate stream : Yes
Defeat audio cache : Yes
Make use of C2 pointers : No
Read offset correction : 6
Overread into Lead-In and Lead-Out : No
Fill up missing offset samples with silence : Yes
Delete leading and trailing silent blocks : No
Null samples used in CRC calculations : Yes
Used interface : Native Win32 interface for Win NT & 2000
Used output format : User Defined Encoder
Selected bitrate : 128 kBit/s
Quality : High
Add ID3 tag : No
Command line compressor : C:\Program Files\Exact Audio Copy\Flac\flac.exe
Additional command line options : -V -8 -T "Date=%year%" -T "Genre=%genre%" %source%
TOC of the extracted CD
Track | Start | Length | Start sector | End sector
---------------------------------------------------------
1 | 0:00.00 | 4:51.00 | 0 | 21824
2 | 4:51.00 | 2:36.65 | 21825 | 33589
3 | 7:27.65 | 1:53.10 | 33590 | 42074
4 | 9:21.00 | 3:28.25 | 42075 | 57699
5 | 12:49.25 | 2:07.35 | 57700 | 67259
6 | 14:56.60 | 5:51.65 | 67260 | 93649
7 | 20:48.50 | 2:20.00 | 93650 | 104149
8 | 23:08.50 | 3:25.37 | 104150 | 119561
9 | 26:34.12 | 3:59.00 | 119562 | 137486
10 | 30:33.12 | 4:27.60 | 137487 | 157571
11 | 35:00.72 | 1:37.20 | 157572 | 164866
12 | 36:38.17 | 5:23.45 | 164867 | 189136
13 | 42:01.62 | 3:08.05 | 189137 | 203241
14 | 45:09.67 | 5:45.08 | 203242 | 229124
Range status and errors
Selected range
Filename C:\Program Files\Exact Audio Copy\Flac\Mozart - Requiem KV 626.wav
Peak level 99.0 %
Extraction speed 1.7 X
Range quality 100.0 %
Test CRC 37FB6898
Copy CRC 37FB6898
Copy OK
No errors occurred
End of status report
==== Log checksum A24D4920679EC43650E025C2EE2D91FE2B3D631D2DF5C9AFFE8F9FF7B85F7A8B ====

CD 10 - Trio Sonatas KV 10-15, Divertimento KV 254 (74'03)

Треклист:
Trio Sonate in B flat, KV 10
01. I. Allegro [00:03:12]
02. II. Anadante [00:04:47]
03. III. Menuetto I [00:01:07]
04. IV. Menuetto II [00:02:04]
Trio Sonata in G, KV 11
05. I. Andante [00:04:26]
06. II. Allegro [00:02:04]
07. III. Menuetto [00:03:35]
Trio Sonata in A, KV 12
08. I. Andante [00:04:21]
09. II. Allegro [00:02:08]
Trio Sonata in F, KV 13
10. I. Allegro [00:03:52]
11. II. Andante [00:04:13]
12. III. Menuetto I & II [00:02:31]
Trio Sonata in C, KV 14
13. I. Allegro [00:03:33]
14. II. Allegro [00:03:04]
15. III. Menuetto I & II en Carillon [00:03:04]
Trio Sonate in B/B flat, KV 15
16. I. Andante maestoso [00:06:31]
17. II. Allegro grazioso [00:02:44]
Divertimento а 3 in B-B flat, KV 254
18. I. Allegro assai [00:04:34]
19. II. Adagio [00:05:11]
20. III. Rondeau - Tempo di Minuetto [00:06:52]
Исполнители:
Mozart Trio: Steven Zehr fortepiano, Annegret Diedrichsen violin & viola, Max Engel violoncello
(Recording: Spring 1979, Salzburg, Schloss Arenberg)

LOG EAC CD10:

Exact Audio Copy V1.0 beta 3 from 29. August 2011
EAC extraction logfile from 20. May 2014, 14:42
Mozart Trio Salzburg / Mozart - Triosonaten KV 10-15, Divertimento KV 254
Used drive : PIONEER DVD-RW DVR-218L Adapter: 0 ID: 1
Read mode : Secure
Utilize accurate stream : Yes
Defeat audio cache : Yes
Make use of C2 pointers : No
Read offset correction : 6
Overread into Lead-In and Lead-Out : No
Fill up missing offset samples with silence : Yes
Delete leading and trailing silent blocks : No
Null samples used in CRC calculations : Yes
Used interface : Native Win32 interface for Win NT & 2000
Used output format : User Defined Encoder
Selected bitrate : 128 kBit/s
Quality : High
Add ID3 tag : No
Command line compressor : C:\Program Files\Exact Audio Copy\Flac\flac.exe
Additional command line options : -V -8 -T "Date=%year%" -T "Genre=%genre%" %source%
TOC of the extracted CD
Track | Start | Length | Start sector | End sector
---------------------------------------------------------
1 | 0:00.00 | 3:12.48 | 0 | 14447
2 | 3:12.48 | 4:47.10 | 14448 | 35982
3 | 7:59.58 | 1:07.15 | 35983 | 41022
4 | 9:06.73 | 2:04.37 | 41023 | 50359
5 | 11:11.35 | 4:26.50 | 50360 | 70359
6 | 15:38.10 | 2:03.73 | 70360 | 79657
7 | 17:42.08 | 3:35.42 | 79658 | 95824
8 | 21:17.50 | 4:21.35 | 95825 | 115434
9 | 25:39.10 | 2:08.28 | 115435 | 125062
10 | 27:47.38 | 3:52.47 | 125063 | 142509
11 | 31:40.10 | 4:13.05 | 142510 | 161489
12 | 35:53.15 | 2:31.33 | 161490 | 172847
13 | 38:24.48 | 3:33.55 | 172848 | 188877
14 | 41:58.28 | 3:04.37 | 188878 | 202714
15 | 45:02.65 | 3:04.35 | 202715 | 216549
16 | 48:07.25 | 6:31.48 | 216550 | 245922
17 | 54:38.73 | 2:44.70 | 245923 | 258292
18 | 57:23.68 | 4:34.32 | 258293 | 278874
19 | 61:58.25 | 5:11.25 | 278875 | 302224
20 | 67:09.50 | 6:52.48 | 302225 | 333172
Range status and errors
Selected range
Filename C:\Program Files\Exact Audio Copy\Flac\Mozart - Triosonaten KV 10-15, Divertimento KV 254.wav
Peak level 85.9 %
Extraction speed 2.0 X
Range quality 100.0 %
Test CRC 3237CDB5
Copy CRC 3237CDB5
Copy OK
No errors occurred
End of status report
==== Log checksum 50A66155AA7EB6C92E82A16215B06A419DCBDA7C374D7D4779C7778FFE435718 ====
[teatrix.ru].t18458.torrent 
Торрент: Зарегистрирован [ 2016-03-17 00:35 ] · 5340E552937F6DBED08238FEA43D76421BF1C06D

Скачать .torrent

Скачать

19 KB

Статус: проверено
Скачан: 1 раз
Размер: 2.87 GB
terms.php



Быстрый ответ

Имя:

      
Для отправки сообщений необходимо включить JavaScript
Показать сообщения:    

Текущее время: 08-Дек 19:04

Часовой пояс: UTC + 3


Вы можете начинать темы
Вы можете отвечать на сообщения
Вы не можете редактировать свои сообщения
Вы не можете удалять свои сообщения
Вы не можете голосовать в опросах
Вы не можете прикреплять файлы к сообщениям
Вы можете скачивать файлы