(Classical, sacred) Munchner Weihnachtsmusik des 16. Jahrhunderts: Orlando di Lasso, Daser, Senfl, Cipriano de Rore, Isaac - Die Gruppe fur alte Musik Munchen, Martin Zobeley - 2008, FLAC (image+.cue) lossless


Статистика раздачи [Обновить пиров]
Размер:  286 MB   |    Зарегистрирован:  8 месяцев 18 дней   |    Скачан:  0 раз

Полного источника не было: Никогда

 
   
 
 
 

[Цитировать]

Münchner Weihnachtsmusik des 16. Jahrhunderts: Orlando di Lasso, Daser, Senfl, Cipriano de Rore, Isaac - Die Gruppe für alte Musik München, Martin Zöbeley
Жанр: Classical, sacred
Страна-производитель диска: Germany
Год издания диска: 2008
Издатель (лейбл): Ars Musici
Дата записи: 1996
Аудиокодек: FLAC
Тип рипа: image+.cue
Битрейт аудио: lossless
Продолжительность: 74:01
Источник: собственный рип
Наличие сканов в содержимом раздачи: да
Треклист:
Orlando di Lasso (1532-1594)
[1] Der Tag, der ist so freudenreich
[2] Resonet in laudibus
Ludwig Daser (ca.1525-1589)
[3] Et verbum caro factum est
Ludwig Senfl (ca.1489-1542/43)
[4] Verbum caro factum est
Cipriano de Rore (1516-1565)
[5] Illuxit nunc sacra dies
Heinrich Isaac (ca.1450-1517)
[6] Puer natus est nobis
Ludwig Senfl
[7] Puer natus est nobis
Cipriano de Rore
[8] Hodie Christus natus est
Ludwig Daser
[9] Hodie Deus homo factus
Orlando di Lasso
[10] Verbum caro factum est
[11] Jubilemus singuli
[12] Maria voll Genad
[13] Der Tag, der ist so freudenreich
Исполнители:
Die Gruppe für alte Musik München
Martin Zöbeley

Лог создания рипа

Exact Audio Copy V1.0 beta 3 from 29. August 2011
EAC extraction logfile from 6. January 2014, 17:51
Die Gruppe für alte Musik München, Martin Zöbeley / Der Tag der ist so freudenreich
Used drive : HL-DT-STDVDRAM GSA-4083N Adapter: 1 ID: 0
Read mode : Secure
Utilize accurate stream : Yes
Defeat audio cache : Yes
Make use of C2 pointers : No
Read offset correction : 667
Overread into Lead-In and Lead-Out : No
Fill up missing offset samples with silence : Yes
Delete leading and trailing silent blocks : No
Null samples used in CRC calculations : Yes
Used interface : Native Win32 interface for Win NT & 2000
Used output format : User Defined Encoder
Selected bitrate : 896 kBit/s
Quality : High
Add ID3 tag : No
Command line compressor : C:\Program Files\Exact Audio Copy\Flac\flac.exe
Additional command line options : -V -8 %source%
TOC of the extracted CD
Track | Start | Length | Start sector | End sector
---------------------------------------------------------
1 | 0:00.00 | 5:54.25 | 0 | 26574
2 | 5:54.25 | 5:34.73 | 26575 | 51697
3 | 11:29.23 | 2:25.44 | 51698 | 62616
4 | 13:54.67 | 10:28.18 | 62617 | 109734
5 | 24:23.10 | 3:02.11 | 109735 | 123395
6 | 27:25.21 | 4:10.03 | 123396 | 142148
7 | 31:35.24 | 18:27.25 | 142149 | 225198
8 | 50:02.49 | 3:50.28 | 225199 | 242476
9 | 53:53.02 | 3:38.72 | 242477 | 258898
10 | 57:31.74 | 3:18.22 | 258899 | 273770
11 | 60:50.21 | 4:32.47 | 273771 | 294217
12 | 65:22.68 | 6:19.10 | 294218 | 322652
13 | 71:42.03 | 2:06.58 | 322653 | 332160
Range status and errors
Selected range
Filename J:\New Music\Munchner Weihnachtsmusik des 16 Jahrhunderts\Der Tag der ist so freudenreich.wav
Peak level 93.0 %
Extraction speed 2.7 X
Range quality 100.0 %
Test CRC 1A34F74F
Copy CRC 1A34F74F
Copy OK
No errors occurred
AccurateRip summary
Track 1 not present in database
Track 2 not present in database
Track 3 not present in database
Track 4 not present in database
Track 5 not present in database
Track 6 not present in database
Track 7 not present in database
Track 8 not present in database
Track 9 not present in database
Track 10 not present in database
Track 11 not present in database
Track 12 not present in database
Track 13 not present in database
None of the tracks are present in the AccurateRip database
End of status report
==== Log checksum 2878B585A9CFAFA5AECF4C76E1D80490F6D08C13617E2A71AF9EC45380928406 ====
[teatrix.ru].t18464.torrent 
Торрент: Зарегистрирован [ 2016-03-17 00:35 ] · 95C6DD8A6CB7ADEF028BE837A03CE06F81047867

Скачать .torrent

Скачать

25 KB

Статус: проверено
Скачан: 0 раз
Размер: 286 MB
terms.php



Быстрый ответ

Имя:

      
Для отправки сообщений необходимо включить JavaScript
Показать сообщения:    

Текущее время: 04-Дек 15:17

Часовой пояс: UTC + 3


Вы можете начинать темы
Вы можете отвечать на сообщения
Вы не можете редактировать свои сообщения
Вы не можете удалять свои сообщения
Вы не можете голосовать в опросах
Вы не можете прикреплять файлы к сообщениям
Вы можете скачивать файлы