(Classical) Barbara Bonney, Antonio Pappano - Diamonds in the Snow (Edvard Grieg, Jean Sibelius, Wilhelm Stenhammar, Hugo Alfven, Carl Leopold Sjöberg) - 2000, FLAC (tracks+.cue) lossless


 

[Цитировать]

Barbara Bonney - Diamonds in the Snow
Жанр: Classical
Год издания диска: 2000
Издатель (лейбл): Decca
Номер по каталогу: 466 762-2
Аудиокодек: FLAC
Тип рипа: tracks+.cue
Битрейт аудио: lossless
Продолжительность: 71’37"
Источник: скачано из сети
Наличие сканов в содержимом раздачи: да
Треклист:
Edvard Grieg
1 Våren (Op.33 No.2) 4:40
2 Jeg Elsker Dig (Op.5 No.3) 1:42
3 Solveigs Sang (Peer Gynt, Op.23) 5:09
4 Med En Vandlilje (Op.25 No.4) 2:20
5 Prinsessen 3:21
6 En Svane (Op.25 No.2) 2:30
7 Fra Monte Pincio (Op.39 No.1) 4:51
Sechs Lieder, Op.48
8 Gruß 1:06
9 Dereinst, Gedanke Mein 3:07
10 Lauf Der Welt 1:31
11 Die Verschweigene Nachtigall 3:19
12 Zur Rosenzeit 2:56
13 Ein Traum 1:58
Jean Sibelius
14 Diamanten På Marssnön (Op.36 No.6) 2:19
15 Vilse (Op.17 No.4) 0:51
16 Säv, Säv, Susa (Op.36 No.4) 2:27
17 Var Det En Dröm? (Op.37 No.4) 1:57
18 Flickan Kom Ifrån Sin Älsklings Möte (Op.37 No.5) 2:38
Wilhelm Stenhammar
19 Flickan Kom Ifrån Sin Älsklings Möte (Op.4b No.1) 4:47
20 Adagio (Op.20 No.5) 3:11
21 Sverige (Op.22 No.2) 2:30
22 Fylgia (Op.16 No.4) 1:39
23 I Skogen 2:15
Hugo Alfvén
24 Så Tag Mit Hjerte 3:07
25 Skogen Sover (Op.28 No.6) 2:34
Carl Leopold Sjöberg
26 Tonerna 2:29
Исполнители:
Barbara Bonney - Soprano,
Antonio Pappano - Piano

LOG EAC CD:

Exact Audio Copy V1.0 beta 3 from 29. August 2011
EAC extraction logfile from 3. February 2013, 22:44
Barbara Bonney / Diamonds in the Snow
Used drive : SONY DVD RW DRU-720A Adapter: 1 ID: 0
Read mode : Secure
Utilize accurate stream : Yes
Defeat audio cache : Yes
Make use of C2 pointers : No
Read offset correction : 12
Overread into Lead-In and Lead-Out : No
Fill up missing offset samples with silence : Yes
Delete leading and trailing silent blocks : No
Null samples used in CRC calculations : Yes
Used interface : Native Win32 interface for Win NT & 2000
Gap handling : Appended to previous track
Used output format : User Defined Encoder
Selected bitrate : 768 kBit/s
Quality : High
Add ID3 tag : No
Command line compressor : C:\Program Files (x86)\Exact Audio Copy\FLAC\FLAC.EXE
Additional command line options : -6 -V -T "ARTIST=%artist%" -T "TITLE=%title%" -T "ALBUM=%albumtitle%" -T "DATE=%year%" -T "TRACKNUMBER=%tracknr%" -T "GENRE=%genre%" -T "COMMENT=%comment%" -T "BAND=%albuminterpret%" -T "ALBUMARTIST=%albuminterpret%" -T "COMPOSER=%composer%" %haslyrics%--tag-from-file=LYRICS="%lyricsfile%"%haslyrics% -T "DISCNUMBER=%cdnumber%" -T "TOTALDISCS=%totalcds%" -T "TOTALTRACKS=%numtracks%" %hascover%--picture="%coverfile%"%hascover% %source% -o %dest%
TOC of the extracted CD
Track | Start | Length | Start sector | End sector
---------------------------------------------------------
1 | 0:00.05 | 4:40.20 | 5 | 21024
2 | 4:40.25 | 1:42.02 | 21025 | 28676
3 | 6:22.27 | 5:08.38 | 28677 | 51814
4 | 11:30.65 | 2:19.47 | 51815 | 62286
5 | 13:50.37 | 3:20.63 | 62287 | 77349
6 | 17:11.25 | 2:30.00 | 77350 | 88599
7 | 19:41.25 | 4:57.62 | 88600 | 110936
8 | 24:39.12 | 1:05.60 | 110937 | 115871
9 | 25:44.72 | 3:06.58 | 115872 | 129879
10 | 28:51.55 | 1:30.65 | 129880 | 136694
11 | 30:22.45 | 3:18.52 | 136695 | 151596
12 | 33:41.22 | 2:55.35 | 151597 | 164756
13 | 36:36.57 | 2:05.38 | 164757 | 174169
14 | 38:42.20 | 2:19.12 | 174170 | 184606
15 | 41:01.32 | 0:51.03 | 184607 | 188434
16 | 41:52.35 | 2:27.00 | 188435 | 199459
17 | 44:19.35 | 1:50.55 | 199460 | 207764
18 | 46:10.15 | 2:45.02 | 207765 | 220141
19 | 48:55.17 | 4:47.13 | 220142 | 241679
20 | 53:42.30 | 3:11.00 | 241680 | 256004
21 | 56:53.30 | 2:29.30 | 256005 | 267209
22 | 59:22.60 | 1:38.52 | 267210 | 274611
23 | 61:01.37 | 2:20.40 | 274612 | 285151
24 | 63:22.02 | 3:06.50 | 285152 | 299151
25 | 66:28.52 | 2:36.60 | 299152 | 310911
26 | 69:05.37 | 2:28.65 | 310912 | 322076
Track 1
Filename C:\flac rips\01 Grieg , Våren (Op.33 No.2).wav
Pre-gap length 0:00:02.06
Peak level 100.0 %
Extraction speed 6.6 X
Track quality 100.0 %
Test CRC 2250D64D
Copy CRC 2250D64D
Accurately ripped (confidence 5) [6D985EBA] (AR v1)
Copy OK
Track 2
Filename C:\flac rips\02 Grieg , Jeg elsker Dig (Op.5 No.3).wav
Peak level 54.2 %
Extraction speed 6.2 X
Track quality 100.0 %
Test CRC 7C637089
Copy CRC 7C637089
Accurately ripped (confidence 5) [05C86F7A] (AR v1)
Copy OK
Track 3
Filename C:\flac rips\03 Grieg , Solveigs sang (Peer Gynt, Op.23).wav
Peak level 40.9 %
Extraction speed 6.6 X
Track quality 100.0 %
Test CRC 1749B6FC
Copy CRC 1749B6FC
Accurately ripped (confidence 5) [DBCE2CCC] (AR v1)
Copy OK
Track 4
Filename C:\flac rips\04 Grieg , Med en vandlilje (Op.25 No.4).wav
Peak level 60.6 %
Extraction speed 6.4 X
Track quality 100.0 %
Test CRC FC37ADC4
Copy CRC FC37ADC4
Accurately ripped (confidence 5) [82C777A4] (AR v1)
Copy OK
Track 5
Filename C:\flac rips\05 Grieg , Prinsessen.wav
Peak level 61.0 %
Extraction speed 6.0 X
Track quality 99.9 %
Test CRC 1AB22474
Copy CRC 1AB22474
Accurately ripped (confidence 5) [8D0A43D7] (AR v1)
Copy OK
Track 6
Filename C:\flac rips\06 Grieg , En svane (Op.25 No.2).wav
Peak level 93.9 %
Extraction speed 6.3 X
Track quality 100.0 %
Test CRC 8344D1E1
Copy CRC 8344D1E1
Accurately ripped (confidence 5) [6531AE22] (AR v1)
Copy OK
Track 7
Filename C:\flac rips\07 Grieg , Fra Monte Pincio (Op.39 No.1).wav
Peak level 70.0 %
Extraction speed 6.2 X
Track quality 99.9 %
Test CRC AC360C93
Copy CRC AC360C93
Accurately ripped (confidence 5) [053A1D6A] (AR v1)
Copy OK
Track 8
Filename C:\flac rips\08 Grieg, Sechs Lieder, op. 48 , Gruß.wav
Pre-gap length 0:00:06.69
Peak level 67.7 %
Extraction speed 5.8 X
Track quality 100.0 %
Test CRC EDEB1830
Copy CRC EDEB1830
Accurately ripped (confidence 5) [9059332A] (AR v1)
Copy OK
Track 9
Filename C:\flac rips\09 Grieg, Sechs Lieder, op. 48 , Dereinst, Gedanke mein.wav
Peak level 34.5 %
Extraction speed 6.5 X
Track quality 100.0 %
Test CRC C41FE687
Copy CRC C41FE687
Accurately ripped (confidence 5) [023A861C] (AR v1)
Copy OK
Track 10
Filename C:\flac rips\10 Grieg, Sechs Lieder, op. 48 , Lauf der Welt.wav
Peak level 56.1 %
Extraction speed 6.1 X
Track quality 100.0 %
Test CRC 3D77A81C
Copy CRC 3D77A81C
Accurately ripped (confidence 5) [037444D7] (AR v1)
Copy OK
Track 11
Filename C:\flac rips\11 Grieg, Sechs Lieder, op. 48 , Die verschwiegene Nachtigall.wav
Peak level 39.0 %
Extraction speed 6.5 X
Track quality 100.0 %
Test CRC 32E06FF8
Copy CRC 32E06FF8
Accurately ripped (confidence 5) [2C53EEEE] (AR v1)
Copy OK
Track 12
Filename C:\flac rips\12 Grieg, Sechs Lieder, op. 48 , Zur Rosenzeit.wav
Peak level 49.3 %
Extraction speed 6.4 X
Track quality 100.0 %
Test CRC C163A01C
Copy CRC C163A01C
Accurately ripped (confidence 5) [D317FD0A] (AR v1)
Copy OK
Track 13
Filename C:\flac rips\13 Grieg, Sechs Lieder, op. 48 , Ein Traum.wav
Peak level 88.3 %
Extraction speed 5.4 X
Track quality 99.9 %
Test CRC CBE12305
Copy CRC CBE12305
Accurately ripped (confidence 5) [92C75534] (AR v1)
Copy OK
Track 14
Filename C:\flac rips\14 Sibelius , Diamanten på Marssnön (Op.36 No.6).wav
Pre-gap length 0:00:07.44
Peak level 56.1 %
Extraction speed 6.3 X
Track quality 100.0 %
Test CRC EDB043CD
Copy CRC EDB043CD
Accurately ripped (confidence 5) [5D1C890B] (AR v1)
Copy OK
Track 15
Filename C:\flac rips\15 Sibelius , Vilse (Op.17 No.4).wav
Peak level 57.7 %
Extraction speed 5.5 X
Track quality 100.0 %
Test CRC 2F1748AE
Copy CRC 2F1748AE
Accurately ripped (confidence 5) [4FE6F817] (AR v1)
Copy OK
Track 16
Filename C:\flac rips\16 Sibelius , Säv, säv, susa (Op.36 No.4).wav
Peak level 86.9 %
Extraction speed 6.2 X
Track quality 100.0 %
Test CRC 4F58D305
Copy CRC 4F58D305
Accurately ripped (confidence 5) [BFF8A5A1] (AR v1)
Copy OK
Track 17
Filename C:\flac rips\17 Sibelius , Var det en dröm (Op.37 No.4).wav
Peak level 90.7 %
Extraction speed 6.1 X
Track quality 100.0 %
Test CRC AC495A89
Copy CRC AC495A89
Accurately ripped (confidence 5) [3AC902FD] (AR v1)
Copy OK
Track 18
Filename C:\flac rips\18 Sibelius , Flickan kom ifrån sin älsklings möte (Op.37 No.5).wav
Peak level 76.0 %
Extraction speed 5.6 X
Track quality 99.9 %
Test CRC F12AFF30
Copy CRC F12AFF30
Accurately ripped (confidence 5) [2C6456E1] (AR v1)
Copy OK
Track 19
Filename C:\flac rips\19 Stenhammar , Flickan kom ifrån sin älsklings mötte (Op.4b No.1).wav
Pre-gap length 0:00:06.96
Peak level 89.4 %
Extraction speed 6.2 X
Track quality 99.9 %
Test CRC 800AD091
Copy CRC 800AD091
Accurately ripped (confidence 5) [1A10810A] (AR v1)
Copy OK
Track 20
Filename C:\flac rips\20 Stenhammar , Adagio (Op.20 No.5).wav
Peak level 47.3 %
Extraction speed 6.5 X
Track quality 100.0 %
Test CRC 0BE98EA9
Copy CRC 0BE98EA9
Accurately ripped (confidence 5) [48595D4D] (AR v1)
Copy OK
Track 21
Filename C:\flac rips\21 Stenhammar , Sverige (Op.22 No.5).wav
Peak level 75.7 %
Extraction speed 5.7 X
Track quality 99.9 %
Test CRC 99689341
Copy CRC 99689341
Accurately ripped (confidence 5) [1809B5A4] (AR v1)
Copy OK
Track 22
Filename C:\flac rips\22 Stenhammar , Fylgia (Op.16 No.4).wav
Peak level 76.1 %
Extraction speed 6.1 X
Track quality 100.0 %
Test CRC 5C8C6A16
Copy CRC 5C8C6A16
Accurately ripped (confidence 5) [70C41DC4] (AR v1)
Copy OK
Track 23
Filename C:\flac rips\23 Stenhammar , I skogen.wav
Peak level 79.2 %
Extraction speed 6.3 X
Track quality 100.0 %
Test CRC E5B8F16A
Copy CRC E5B8F16A
Accurately ripped (confidence 5) [51B366C8] (AR v1)
Copy OK
Track 24
Filename C:\flac rips\24 Alfvén , Så tag mit hjerte.wav
Pre-gap length 0:00:05.62
Peak level 39.3 %
Extraction speed 6.4 X
Track quality 100.0 %
Test CRC C3C328CD
Copy CRC C3C328CD
Accurately ripped (confidence 5) [C2529A10] (AR v1)
Copy OK
Track 25
Filename C:\flac rips\25 Alfvén , Skogen sover (Op.28 No.6).wav
Peak level 48.0 %
Extraction speed 6.3 X
Track quality 100.0 %
Test CRC FF068DDC
Copy CRC FF068DDC
Accurately ripped (confidence 5) [E6B01EBA] (AR v1)
Copy OK
Track 26
Filename C:\flac rips\26 Sjöberg , Tonerna.wav
Pre-gap length 0:00:02.96
Peak level 67.7 %
Extraction speed 4.1 X
Track quality 100.0 %
Test CRC FA99CAFF
Copy CRC FA99CAFF
Accurately ripped (confidence 5) [2667608F] (AR v1)
Copy OK
All tracks accurately ripped
No errors occurred
End of status report
==== Log checksum 8E136BA50E6BC5F32BC46464A4C38B4C743CC84403011F27243A2CBB74180736 ====

LOG (.CUE):

REM GENRE Vocal
REM DATE 2000
REM DISCID 7210C61A
REM COMMENT "ExactAudioCopy v0.99pb4"
PERFORMER "Barbara Bonney, Antonio Pappano"
TITLE "diamonds in the snow"
FILE "barbara bonney - diamonds in the snow.flac" WAVE
TRACK 01 AUDIO
TITLE "Varen"
PERFORMER "Barbara Bonney, Antonio Pappano"
ISRC ZP400160;713
INDEX 00 00:00:00
INDEX 01 00:00:07
TRACK 02 AUDIO
TITLE "Jeg elsker Dig"
PERFORMER "Barbara Bonney, Antonio Pappano"
ISRC ZP400160;713
INDEX 01 04:40:27
TRACK 03 AUDIO
TITLE "Solveigs sang"
PERFORMER "Barbara Bonney, Antonio Pappano"
ISRC ZP400160;713
INDEX 01 06:22:28
TRACK 04 AUDIO
TITLE "Med en vandlilje"
PERFORMER "Barbara Bonney, Antonio Pappano"
ISRC ZP400160;713
INDEX 01 11:30:65
TRACK 05 AUDIO
TITLE "Prinsessen"
PERFORMER "Barbara Bonney, Antonio Pappano"
ISRC ZP400160;713
INDEX 01 13:50:38
TRACK 06 AUDIO
TITLE "En svane"
PERFORMER "Barbara Bonney, Antonio Pappano"
ISRC ZP400160;713
INDEX 01 17:11:27
TRACK 07 AUDIO
TITLE "Fra Monte Pincio"
PERFORMER "Barbara Bonney, Antonio Pappano"
ISRC ZP400160;713
INDEX 01 19:41:26
TRACK 08 AUDIO
TITLE "GruЯ"
PERFORMER "Barbara Bonney, Antonio Pappano"
ISRC ZP400160;713
INDEX 00 24:32:36
INDEX 01 24:39:14
TRACK 09 AUDIO
TITLE "Dereinst, Gedanke mein"
PERFORMER "Barbara Bonney, Antonio Pappano"
ISRC ZP400160;713
INDEX 01 25:44:73
TRACK 10 AUDIO
TITLE "Lauf der Welt"
PERFORMER "Barbara Bonney, Antonio Pappano"
ISRC 2@400150;254
INDEX 01 28:51:55
TRACK 11 AUDIO
TITLE "Die verschwiegene Nachtigall"
PERFORMER "Barbara Bonney, Antonio Pappano"
ISRC 2@400150;254
INDEX 01 30:22:45
TRACK 12 AUDIO
TITLE "Zur Rosenzeit"
PERFORMER "Barbara Bonney, Antonio Pappano"
ISRC 2@400150;254
INDEX 01 33:41:24
TRACK 13 AUDIO
TITLE "Ein Traum"
PERFORMER "Barbara Bonney, Antonio Pappano"
ISRC 2@400150;254
INDEX 01 36:36:58
TRACK 14 AUDIO
TITLE "Diamanten Pa Marssnon"
PERFORMER "Barbara Bonney, Antonio Pappano"
ISRC 2@400150;254
INDEX 00 38:34:63
INDEX 01 38:42:20
TRACK 15 AUDIO
TITLE "Vilse"
PERFORMER "Barbara Bonney, Antonio Pappano"
ISRC 2@400150;254
INDEX 01 41:01:33
TRACK 16 AUDIO
TITLE "Sav, sav, susa"
PERFORMER "Barbara Bonney, Antonio Pappano"
ISRC 2@400150;254
INDEX 01 41:52:37
TRACK 17 AUDIO
TITLE "Var det en drom?"
PERFORMER "Barbara Bonney, Antonio Pappano"
ISRC 2@400150;254
INDEX 01 44:19:35
TRACK 18 AUDIO
TITLE "Flickan kom ifran sin alskings mote"
PERFORMER "Barbara Bonney, Antonio Pappano"
ISRC 2@400150;254
INDEX 01 46:10:16
TRACK 19 AUDIO
TITLE "Flickan kom ifran sin alskings mote"
PERFORMER "Barbara Bonney, Antonio Pappano"
ISRC 2@400150<254
INDEX 00 48:48:20
INDEX 01 48:55:19
TRACK 20 AUDIO
TITLE "Adagio"
PERFORMER "Barbara Bonney, Antonio Pappano"
ISRC 2@400150<254
INDEX 01 53:42:30
TRACK 21 AUDIO
TITLE "Sverige"
PERFORMER "Barbara Bonney, Antonio Pappano"
ISRC 2@400150<254
INDEX 01 56:53:30
TRACK 22 AUDIO
TITLE "Fylgia"
PERFORMER "Barbara Bonney, Antonio Pappano"
ISRC 2@400150<254
INDEX 01 59:22:60
TRACK 23 AUDIO
TITLE "I skogen"
PERFORMER "Barbara Bonney, Antonio Pappano"
ISRC 2@400150<254
INDEX 01 61:01:38
TRACK 24 AUDIO
TITLE "Sa tag mit hjerte"
PERFORMER "Barbara Bonney, Antonio Pappano"
ISRC 2@400150<254
INDEX 00 63:16:32
INDEX 01 63:22:03
TRACK 25 AUDIO
TITLE "Skogen sover"
PERFORMER "Barbara Bonney, Antonio Pappano"
ISRC 2@400150<254
INDEX 01 66:28:54
TRACK 26 AUDIO
TITLE "Tonerna"
PERFORMER "Barbara Bonney, Antonio Pappano"
ISRC 2@400150<254
INDEX 00 69:02:40
INDEX 01 69:05:39
mp3



Показать сообщения:    

Текущее время: 10-Дек 15:48

Часовой пояс: UTC + 3


Вы не можете начинать темы
Вы не можете отвечать на сообщения
Вы не можете редактировать свои сообщения
Вы не можете удалять свои сообщения
Вы не можете голосовать в опросах
Вы не можете прикреплять файлы к сообщениям
Вы не можете скачивать файлы