(Choral) Ludwig van Beethoven - Messe {Mass} in C, Ah perfido!, Meeresstille und gluckliche Fahrt {Calm Sea and Prosperous Voyage} (Monteverdi Choir, Orchestre Revolutionnaire et Romantique, John Eliot Gardiner) - 1992, FLAC (image+.cue) lossless


Статистика раздачи [Обновить пиров]
Размер:  291 MB   |    Зарегистрирован:  8 месяцев 17 дней   |    Скачан:  1 раз

Полного источника не было: 1 месяц

 
   
 
 
 

[Цитировать]

Ludwig van Beethoven - Messe in C | Ah perfido! | Meeresstille und glückliche FahrtThe Monteverdi Choir | Orchestre Revolutionnaire et Romantique | John Eliot Gardiner Жанр: Choral
Страна-производитель диска: Germany
Год издания диска: 1992
Издатель (лейбл): Archiv Produktion
Номер по каталогу: 435 391-2
Дата записи: 1989-1991
Аудиокодек: FLAC
Тип рипа: image+.cue
Битрейт аудио: lossless
Продолжительность: 1:02:04
Источник: скачано с odeonmusic
Наличие сканов в содержимом раздачи: да
Треклист:
1. Ah perfido! (for soprano and orchestra), Op.65 12:39
2. Meeresstille und glückliche Fahrt, Op.112 7:18
Mass in C major, Op.86
3. Kyrie 5:42
4. Gloria: Gloria in excelsis Deo 8:49
5. Credo: Credo in unum Deum 10:30
6. Sanctus - Osanna in excelsis 10:47
7. Agnus Dei 6:21
Исполнители:
Charlotte Margiono - soprano
Catherine Robbin - mezzo-soprano
William Kendall - tenor
Alastair Miles - bass
The Monteverdi Choir
Orchestre Révolutionnaire et Romantique
John Eliot Gardiner - conductor

Лог создания рипа

Exact Audio Copy V1.0 beta 3 from 29. August 2011
EAC extraction logfile from 7. December 2012, 15:57
John Eliot Gardiner / Beethoven - Mass in C major - Gardiner
Used drive : TSSTcorpCDDVDW SH-222BB Adapter: 2 ID: 1
Read mode : Secure
Utilize accurate stream : Yes
Defeat audio cache : Yes
Make use of C2 pointers : No
Read offset correction : 6
Overread into Lead-In and Lead-Out : No
Fill up missing offset samples with silence : Yes
Delete leading and trailing silent blocks : No
Null samples used in CRC calculations : Yes
Used interface : Native Win32 interface for Win NT & 2000
Used output format : User Defined Encoder
Selected bitrate : 1024 kBit/s
Quality : High
Add ID3 tag : No
Command line compressor : C:\Program Files\Exact Audio Copy\Flac\flac.exe
Additional command line options : -8 -V -T "TITLE=%title%" -T "ARTIST=%artist%" -T "ALBUMARTIST=%albumartist%" -T "ALBUM=%albumtitle%" -T "DATE=%year%" -T "TRACKNUMBER=%tracknr%" -T "TRACKTOTAL=%numtracks%" -T "GENRE=%genre%" -T "COMMENT=%comment%" -T "PERFORMER=%albuminterpret%" -T "COMPOSER=%composer%" %source% -o %dest%
TOC of the extracted CD
Track | Start | Length | Start sector | End sector
---------------------------------------------------------
1 | 0:00.33 | 12:41.00 | 33 | 57107
2 | 12:41.33 | 7:21.00 | 57108 | 90182
3 | 20:02.33 | 5:35.00 | 90183 | 115307
4 | 25:37.33 | 8:49.00 | 115308 | 154982
5 | 34:26.33 | 10:30.00 | 154983 | 202232
6 | 44:56.33 | 10:47.00 | 202233 | 250757
7 | 55:43.33 | 6:21.00 | 250758 | 279332
Range status and errors
Selected range
Filename G:\Ripped general\[1450] Beethoven – Mass in C major – Gardiner\Beethoven - Mass in C major - Gardiner.wav
Peak level 99.9 %
Extraction speed 2.3 X
Range quality 100.0 %
Test CRC C3C8C1DB
Copy CRC C3C8C1DB
Copy OK
No errors occurred
AccurateRip summary
Track 1 accurately ripped (confidence 2) [6DFEA701] (AR v2)
Track 2 accurately ripped (confidence 2) [5FEB90A2] (AR v2)
Track 3 accurately ripped (confidence 2) [AD04B967] (AR v2)
Track 4 accurately ripped (confidence 2) [962BDE29] (AR v2)
Track 5 accurately ripped (confidence 2) [9BE2E1D2] (AR v2)
Track 6 accurately ripped (confidence 2) [61B9A186] (AR v2)
Track 7 accurately ripped (confidence 2) [6A190F24] (AR v2)
All tracks accurately ripped
End of status report

Лог проверки качества

AUDIOCHECKER v2.0 beta (build 457) - by Dester - opdester@freemail.hu
~~~~~~~~~~~~~~~~~~~~~~~~~~~~~~~~~~
-=== DO NOT EDIT THIS FILE! ===-
Path: ...\Beethoven - Mass in C major (Gardiner)
1 -=- Beethoven - Mass in C major - Gardiner.flac -=- CDDA (99%)
263763204
[teatrix.ru].t18480.torrent 
Торрент: Зарегистрирован [ 2016-03-17 00:35 ] · 01D81F548F2FF1AF0081D71C84EEB601D49B04F5

Скачать .torrent

Скачать

13 KB

Статус: проверено
Скачан: 1 раз
Размер: 291 MB
terms.php



Быстрый ответ

Имя:

      
Для отправки сообщений необходимо включить JavaScript
Показать сообщения:    

Текущее время: 03-Дек 07:39

Часовой пояс: UTC + 3


Вы можете начинать темы
Вы можете отвечать на сообщения
Вы не можете редактировать свои сообщения
Вы не можете удалять свои сообщения
Вы не можете голосовать в опросах
Вы не можете прикреплять файлы к сообщениям
Вы можете скачивать файлы