(Choral) Joseph Haydn - The Creation (sung in English) [Die Schopfung] (City of Birmingham Symphony Orchestra & Chorus, Auger, Langridge, Thomas, Simon Rattle) - 1991, FLAC (image+.cue) lossless


Статистика раздачи [Обновить пиров]
Размер:  378 MB   |    Зарегистрирован:  8 месяцев 25 дней   |    Скачан:  0 раз

Полного источника не было: Никогда

 
   
 
 
 

[Цитировать]

Joseph Haydn - The Creation (Sung in English)City of Birmingham Symphony Orchestra & Chorus, Simon Rattle Жанр: Choral
Страна-производитель диска: EU
Год издания диска: 1991
Издатель (лейбл): EMI
Дата записи: 1990
Аудиокодек: FLAC
Тип рипа: image+.cue
Битрейт аудио: lossless
Продолжительность: 1:39:31
Источник: собственный рип
Наличие сканов в содержимом раздачи: да
Исполнители:
Arléen Auger - soprano (Gabriel, Eve)
Philip Langridge - tenor (Uriel)
David Thomas - bass (Refael, Adam)
City of Birmingham Symphony Orchestra & Chorus
Sir Simone Rattle - conductor

Треклист

CD 1
01. Representation of Chaos 06:01
02. In the Beginning 02:32
03. Now Vanish Before the Holy Beams 03:49
04. And God Made the Firmament 01:43
05. The Marvellous Works 02:15
06. And God Said, Let the Waters 00:38
07. Rolling in Foaming Billows 04:27
08. And God Said, Let the Earth 00:27
09. With Verdure Clad 04:51
10. And the Heavenly Host 00:09
11. Awake the Harp 02:09
12. And God Said, Let There Be Lights 00:39
13. In Splendour Bright 02:38
14. The Heavens Are Telling 03:47
15. And God Said, Let the Waters 00:22
16. On Mighty Pens 07:26
17. And God Created Great Whales 02:22
18. And the Angels 00:16
19. Most Beautiful Appear 03:52
20. The Lord Is Great 02:27
CD2
01. And God Said, Let the Earth 00:42
02. Straight Opening Her Fertile Womb 03:01
03. Now Heaven in All Her Glory Shines 03:14
04. So God Created Man 00:37
05. In Native Worth 03:30
06. And God Saw Every Thing 00:19
07. Achieved Is the Glorious Work 01:25
08. On Thee Each Living Soul 04:19
09. Achieved Is the Glorious Work 03:05
10. In Rosy Mantle 03:43
11. By Thee With Bliss 02:55
12. Of Stars the Fairest 04:00
13. Hail! Bounteous Lord! 02:06
14. Our Duty We Have Now Performed 02:27
15. Graceful Consort 03:00
16. The Dew-Dropping Morn 04:09
17. O Happy Pair 00:22
18. Sing the Lord 03:30

Лог создания рипа

Лог создания рипа CD1

Exact Audio Copy V1.0 beta 3 from 29. August 2011
EAC extraction logfile from 13. May 2014, 15:30
CBSO & Chorus / Simon Rattle / The Creation CD1
Used drive : TSSTcorp CDDVDW Adapter: 0 ID: 0
Read mode : Secure
Utilize accurate stream : Yes
Defeat audio cache : Yes
Make use of C2 pointers : No
Read offset correction : 6
Overread into Lead-In and Lead-Out : No
Fill up missing offset samples with silence : Yes
Delete leading and trailing silent blocks : No
Null samples used in CRC calculations : Yes
Used interface : Installed external ASPI interface
Used output format : User Defined Encoder
Selected bitrate : 768 kBit/s
Quality : High
Add ID3 tag : No
Command line compressor : C:\Program Files (x86)\Exact Audio Copy\FLAC\FLAC.EXE
Additional command line options : -6 -V -T "ARTIST=%artist%" -T "TITLE=%title%" -T "ALBUM=%albumtitle%" -T "DATE=%year%" -T "TRACKNUMBER=%tracknr%" -T "GENRE=%genre%" -T "COMMENT=%comment%" -T "BAND=%albuminterpret%" -T "ALBUMARTIST=%albuminterpret%" -T "COMPOSER=%composer%" %haslyrics%--tag-from-file=LYRICS="%lyricsfile%"%haslyrics% -T "DISCNUMBER=%cdnumber%" -T "TOTALDISCS=%totalcds%" -T "TOTALTRACKS=%numtracks%" %hascover%--picture="%coverfile%"%hascover% %source% -o %dest%
TOC of the extracted CD
Track | Start | Length | Start sector | End sector
---------------------------------------------------------
1 | 0:00.33 | 6:01.10 | 33 | 27117
2 | 6:01.43 | 2:32.60 | 27118 | 38577
3 | 8:34.28 | 3:49.07 | 38578 | 55759
4 | 12:23.35 | 1:43.10 | 55760 | 63494
5 | 14:06.45 | 2:15.55 | 63495 | 73674
6 | 16:22.25 | 0:38.60 | 73675 | 76584
7 | 17:01.10 | 4:27.00 | 76585 | 96609
8 | 21:28.10 | 0:27.18 | 96610 | 98652
9 | 21:55.28 | 4:51.07 | 98653 | 120484
10 | 26:46.35 | 0:09.05 | 120485 | 121164
11 | 26:55.40 | 2:09.03 | 121165 | 130842
12 | 29:04.43 | 0:39.37 | 130843 | 133804
13 | 29:44.05 | 2:38.68 | 133805 | 145722
14 | 32:22.73 | 3:47.70 | 145723 | 162817
15 | 36:10.68 | 0:22.35 | 162818 | 164502
16 | 36:33.28 | 7:26.27 | 164503 | 197979
17 | 43:59.55 | 2:22.35 | 197980 | 208664
18 | 46:22.15 | 0:16.63 | 208665 | 209927
19 | 46:39.03 | 3:52.50 | 209928 | 227377
20 | 50:31.53 | 2:27.50 | 227378 | 238452
Range status and errors
Selected range
Filename C:\RIP\Haydn - The Creation CD1.wav
Peak level 99.9 %
Extraction speed 3.0 X
Range quality 100.0 %
Test CRC 40B5CC2B
Copy CRC 40B5CC2B
Copy OK
No errors occurred
AccurateRip summary
Track 1 accurately ripped (confidence 3) [2CF7BA4A] (AR v2)
Track 2 accurately ripped (confidence 3) [F57D3D5F] (AR v2)
Track 3 accurately ripped (confidence 3) [AC0CB350] (AR v2)
Track 4 accurately ripped (confidence 3) [9B218486] (AR v2)
Track 5 accurately ripped (confidence 3) [63A44EA3] (AR v2)
Track 6 accurately ripped (confidence 3) [09E396A2] (AR v2)
Track 7 accurately ripped (confidence 3) [D26C7190] (AR v2)
Track 8 accurately ripped (confidence 3) [662DB982] (AR v2)
Track 9 accurately ripped (confidence 3) [3BA9779E] (AR v2)
Track 10 accurately ripped (confidence 3) [F7793B10] (AR v2)
Track 11 accurately ripped (confidence 3) [ACF831E8] (AR v2)
Track 12 accurately ripped (confidence 3) [D473E87F] (AR v2)
Track 13 accurately ripped (confidence 3) [830AB3F3] (AR v2)
Track 14 accurately ripped (confidence 3) [5BAFFCBF] (AR v2)
Track 15 accurately ripped (confidence 3) [CE0A2A36] (AR v2)
Track 16 accurately ripped (confidence 3) [0D99B5C1] (AR v2)
Track 17 accurately ripped (confidence 3) [847BC1A9] (AR v2)
Track 18 accurately ripped (confidence 3) [4E9417AA] (AR v2)
Track 19 accurately ripped (confidence 3) [7C56770B] (AR v2)
Track 20 accurately ripped (confidence 3) [2DC03E3D] (AR v2)
All tracks accurately ripped
End of status report
==== Log checksum 419A14FAA886AFFEC775F9938650CA6843664C97D5326AFBC1DE399783AD6A52 ====

Лог создания рипа CD2

Exact Audio Copy V1.0 beta 3 from 29. August 2011
EAC extraction logfile from 13. May 2014, 17:03
CBSO & Chorus / Simon Rattle / The Creation CD2
Used drive : TSSTcorp CDDVDW Adapter: 0 ID: 0
Read mode : Secure
Utilize accurate stream : Yes
Defeat audio cache : Yes
Make use of C2 pointers : No
Read offset correction : 6
Overread into Lead-In and Lead-Out : No
Fill up missing offset samples with silence : Yes
Delete leading and trailing silent blocks : No
Null samples used in CRC calculations : Yes
Used interface : Installed external ASPI interface
Used output format : User Defined Encoder
Selected bitrate : 768 kBit/s
Quality : High
Add ID3 tag : No
Command line compressor : C:\Program Files (x86)\Exact Audio Copy\FLAC\FLAC.EXE
Additional command line options : -6 -V -T "ARTIST=%artist%" -T "TITLE=%title%" -T "ALBUM=%albumtitle%" -T "DATE=%year%" -T "TRACKNUMBER=%tracknr%" -T "GENRE=%genre%" -T "COMMENT=%comment%" -T "BAND=%albuminterpret%" -T "ALBUMARTIST=%albuminterpret%" -T "COMPOSER=%composer%" %haslyrics%--tag-from-file=LYRICS="%lyricsfile%"%haslyrics% -T "DISCNUMBER=%cdnumber%" -T "TOTALDISCS=%totalcds%" -T "TOTALTRACKS=%numtracks%" %hascover%--picture="%coverfile%"%hascover% %source% -o %dest%
TOC of the extracted CD
Track | Start | Length | Start sector | End sector
---------------------------------------------------------
1 | 0:00.33 | 0:42.02 | 33 | 3184
2 | 0:42.35 | 3:01.40 | 3185 | 16799
3 | 3:44.00 | 3:14.38 | 16800 | 31387
4 | 6:58.38 | 0:37.42 | 31388 | 34204
5 | 7:36.05 | 3:30.13 | 34205 | 49967
6 | 11:06.18 | 0:19.62 | 49968 | 51454
7 | 11:26.05 | 1:25.45 | 51455 | 57874
8 | 12:51.50 | 4:19.15 | 57875 | 77314
9 | 17:10.65 | 3:05.70 | 77315 | 91259
10 | 20:16.60 | 3:43.55 | 91260 | 108039
11 | 24:00.40 | 2:55.73 | 108040 | 121237
12 | 26:56.38 | 4:00.50 | 121238 | 139287
13 | 30:57.13 | 2:06.32 | 139288 | 148769
14 | 33:03.45 | 2:27.45 | 148770 | 159839
15 | 35:31.15 | 3:00.23 | 159840 | 173362
16 | 38:31.38 | 4:09.30 | 173363 | 192067
17 | 42:40.68 | 0:22.07 | 192068 | 193724
18 | 43:03.00 | 3:30.25 | 193725 | 209499
Range status and errors
Selected range
Filename C:\RIP\Haydn - The Creation CD2.wav
Peak level 97.7 %
Extraction speed 3.0 X
Range quality 100.0 %
Test CRC 84768F72
Copy CRC 84768F72
Copy OK
No errors occurred
AccurateRip summary
Track 1 accurately ripped (confidence 2) [88617273] (AR v2)
Track 2 accurately ripped (confidence 2) [7AE32935] (AR v2)
Track 3 accurately ripped (confidence 2) [0E584731] (AR v2)
Track 4 accurately ripped (confidence 2) [C7E281C1] (AR v2)
Track 5 accurately ripped (confidence 2) [4F8DEEA0] (AR v2)
Track 6 accurately ripped (confidence 2) [CCB4A93D] (AR v2)
Track 7 accurately ripped (confidence 2) [0A3C639B] (AR v2)
Track 8 accurately ripped (confidence 2) [C6E350F5] (AR v2)
Track 9 accurately ripped (confidence 2) [D1EA128D] (AR v2)
Track 10 accurately ripped (confidence 2) [AEE3887E] (AR v2)
Track 11 accurately ripped (confidence 2) [8A022453] (AR v2)
Track 12 accurately ripped (confidence 2) [9F7C1173] (AR v2)
Track 13 accurately ripped (confidence 2) [B21C1421] (AR v2)
Track 14 accurately ripped (confidence 2) [458272B2] (AR v2)
Track 15 accurately ripped (confidence 2) [1FBB4EAA] (AR v2)
Track 16 accurately ripped (confidence 2) [1714132D] (AR v2)
Track 17 accurately ripped (confidence 2) [0A2DF236] (AR v2)
Track 18 accurately ripped (confidence 2) [40CB1D6B] (AR v2)
All tracks accurately ripped
End of status report
==== Log checksum 6B4EAD208922BC9C997A8E31B33CFCF5B592BBFC56A923386509EB01A8F94F0E ====
[teatrix.ru].t18487.torrent 
Торрент: Зарегистрирован [ 2016-03-17 00:35 ] · 01821F65E3FC2811012516C67A1616BA2E1BE5FA

Скачать .torrent

Скачать

16 KB

Статус: проверено
Скачан: 0 раз
Размер: 378 MB
terms.php



Быстрый ответ

Имя:

      
Для отправки сообщений необходимо включить JavaScript
Показать сообщения:    

Текущее время: 11-Дек 16:55

Часовой пояс: UTC + 3


Вы можете начинать темы
Вы можете отвечать на сообщения
Вы не можете редактировать свои сообщения
Вы не можете удалять свои сообщения
Вы не можете голосовать в опросах
Вы не можете прикреплять файлы к сообщениям
Вы можете скачивать файлы