(Vocal) Hans Leo Hassler (1564-1612) "Lustgarten neuer teutscher Gesang" Capella Lipsiensis - Dietrich Knothe - 1996 (1963), FLAC (image+.cue) lossless


Статистика раздачи [Обновить пиров]
Размер:  239 MB   |    Зарегистрирован:  10 месяцев 3 дня   |    Скачан:  0 раз

Полного источника не было: Никогда

 
   
 
 
 

[Цитировать]

Hans Leo Haßler (1564-1612) - Lustgarten neuer teutscher Gesäng
Жанр: Vocal
Страна-производитель диска: Germany
Год издания диска: 1996
Издатель (лейбл): Berlin Classics
Номер по каталогу: 0031272BC
Дата записи: 1963
Аудиокодек: FLAC
Тип рипа: image+.cue
Битрейт аудио: lossless
Продолжительность: 51:37
Источник: internet
Наличие сканов в содержимом раздачи: да
Треклист:
1. Sechste Intrade (XLV)
2. Galliarde: Tantzen und springen (XX)
3. Mein Gmüth ist mir verwirret (XXIV)
4. Zweite Intrade (XLI)
5. Tantz: (Unter alln auff diser erden) (XXII)
6. Im kühlen Mayen (XXXVIII)
7. Tantz: Nun lasst uns fröhlich sein (XVIII)
8. Vierte Intrade (XLIII)
9. Ihr Musici, frisch auff (XXXV)
10. Siebente Intrade (XLVI)
11. Ach Fräulein zart (I)
12. Ach weh, dess leiden (XIX)
13. (Ach Schatz, ich sing und lache) (V)
14. Galliarde: All lust und freud (XV)
15. Ein Bräutlein wolt nicht gehn (XI)
Als der Bräutigam auff gut glück (XII)
Und sagt in solcher Brünstigkeit (XIII)
Darumb ward er sehr ausgelacht (XVI)
16. Ich bring meim Bruder ein guten Trunck (XXXIX)
Исполнители:
Capella Lipsiensis
Dirigent: Dietrich Knothe
Capella Lipsiensis -
solist ensemble specialised in Renaissane and Baroque music found in 1955 by Dietrich Knothe

Лог создания рипа

Exact Audio Copy V0.99 prebeta 5 from 4. May 2009
EAC extraction logfile from 9. April 2014, 8:21
Capella Lipsiensis - Dietrich Knothe / HaЯler - Lustgarten neuer teutscher Gesдng
Used drive : PLDS DVD+-RW DH-16AES Adapter: 1 ID: 0
Read mode : Secure
Utilize accurate stream : Yes
Defeat audio cache : Yes
Make use of C2 pointers : Yes
Read offset correction : 0
Overread into Lead-In and Lead-Out : No
Fill up missing offset samples with silence : Yes
Delete leading and trailing silent blocks : No
Null samples used in CRC calculations : Yes
Used interface : Native Win32 interface for Win NT & 2000
Used output format : User Defined Encoder
Selected bitrate : 768 kBit/s
Quality : High
Add ID3 tag : No
Additional command line options : -8 -V -T "ARTIST=%a" -T "TITLE=%t" -T "ALBUM=%g" -T "DATE=%y" -T "TRACKNUMBER=%n" -T "GENRE=%m" %s -o %d
TOC of the extracted CD
Track | Start | Length | Start sector | End sector
---------------------------------------------------------
1 | 0:00.00 | 2:19.12 | 0 | 10436
2 | 2:19.12 | 2:32.18 | 10437 | 21854
3 | 4:51.30 | 4:35.20 | 21855 | 42499
4 | 9:26.50 | 3:30.52 | 42500 | 58301
5 | 12:57.27 | 4:57.58 | 58302 | 80634
6 | 17:55.10 | 3:11.50 | 80635 | 95009
7 | 21:06.60 | 4:06.07 | 95010 | 113466
8 | 25:12.67 | 2:52.28 | 113467 | 126394
9 | 28:05.20 | 3:02.32 | 126395 | 140076
10 | 31:07.52 | 1:01.48 | 140077 | 144699
11 | 32:09.25 | 4:19.02 | 144700 | 164126
12 | 36:28.27 | 2:12.65 | 164127 | 174091
13 | 38:41.17 | 1:46.23 | 174092 | 182064
14 | 40:27.40 | 3:27.30 | 182065 | 197619
15 | 43:54.70 | 5:32.65 | 197620 | 222584
16 | 49:27.60 | 2:07.32 | 222585 | 232141
Range status and errors
Selected range
Peak level 91.2 %
Range quality 100.0 %
Test CRC EED71793
Copy CRC EED71793
Copy OK
No errors occurred
End of status report

Содержание индексной карты (.CUE)

REM GENRE Vocal
REM DATE 1963
REM DISCID F90C1710
REM COMMENT "ExactAudioCopy v0.99pb5"
CATALOG 0000000000000
PERFORMER "Capella Lipsiensis - Dietrich Knothe"
TITLE "Hassler - Lustgarten neuer teutscher Gesang"
FILE "Hans Leo Hassler - Capella Lipsiensis.flac" WAVE
TRACK 01 AUDIO
TITLE "Sechste Intrade XLV"
PERFORMER "Capella Lipsiensis - Dietrich Knothe"
INDEX 01 00:00:00
TRACK 02 AUDIO
TITLE "Galliarde: Tantzen und springen XX"
PERFORMER "Capella Lipsiensis - Dietrich Knothe"
INDEX 01 02:19:12
TRACK 03 AUDIO
TITLE "Mein Gmuth ist mir verwirret XXIV"
PERFORMER "Capella Lipsiensis - Dietrich Knothe"
INDEX 01 04:51:30
TRACK 04 AUDIO
TITLE "Zweite Intrade XLI"
PERFORMER "Capella Lipsiensis - Dietrich Knothe"
INDEX 01 09:26:50
TRACK 05 AUDIO
TITLE "Tantz: Unter alln auff diser erden XLI"
PERFORMER "Capella Lipsiensis - Dietrich Knothe"
INDEX 01 12:57:27
TRACK 06 AUDIO
TITLE "Im kuhlen Mayen XXXVIII"
PERFORMER "Capella Lipsiensis - Dietrich Knothe"
INDEX 01 17:55:10
TRACK 07 AUDIO
TITLE "Tantz: Nun lasst uns frohlich sein XVIII"
PERFORMER "Capella Lipsiensis - Dietrich Knothe"
INDEX 01 21:06:60
TRACK 08 AUDIO
TITLE "Vierte Intrade XLIII"
PERFORMER "Capella Lipsiensis - Dietrich Knothe"
INDEX 01 25:12:67
TRACK 09 AUDIO
TITLE "Ihr Musici, frisch auff XXXV"
PERFORMER "Capella Lipsiensis - Dietrich Knothe"
INDEX 01 28:05:20
TRACK 10 AUDIO
TITLE "Siebente Intrade XLVI"
PERFORMER "Capella Lipsiensis - Dietrich Knothe"
INDEX 01 31:07:52
TRACK 11 AUDIO
TITLE "Ach Fraulein zart I"
PERFORMER "Capella Lipsiensis - Dietrich Knothe"
INDEX 01 32:09:25
TRACK 12 AUDIO
TITLE "Ach weh, dess leiden XLX"
PERFORMER "Capella Lipsiensis - Dietrich Knothe"
INDEX 01 36:28:27
TRACK 13 AUDIO
TITLE "Ach Schatz, ich sing und lache V"
PERFORMER "Capella Lipsiensis - Dietrich Knothe"
INDEX 01 38:41:17
TRACK 14 AUDIO
TITLE "Galliarde: All lust und freud XV"
PERFORMER "Capella Lipsiensis - Dietrich Knothe"
INDEX 01 40:27:40
TRACK 15 AUDIO
TITLE "Ein Brautigam wolt nicht gehn etc. XI-XVI"
PERFORMER "Capella Lipsiensis - Dietrich Knothe"
INDEX 01 43:54:70
TRACK 16 AUDIO
TITLE "Ich bring meim Bruder ein guten Trunck XXXiX"
PERFORMER "Capella Lipsiensis - Dietrich Knothe"
INDEX 01 49:27:60

Лог проверки качества

AUDIOCHECKER v2.0 beta (build 457) - by Dester - opdester@freemail.hu
~~~~~~~~~~~~~~~~~~~~~~~~~~~~~~~~~~
-=== DO NOT EDIT THIS FILE! ===-
Path: ...\Hans Leo Hassler (1564-1612) - Capella Lipsiensis [1963]
1 -=- Hans Leo Hassler - Capella Lipsiensis.flac -=- CDDA (100%)
38635268

Скриншот спектра частот

Доп. информация: Musikwissenschaftliehe Beratung (музыкальный консультант): Dr. Hans Grüß
[teatrix.ru].t18491.torrent 
Торрент: Зарегистрирован [ 2016-03-17 00:35 ] · 7DF5F424D63B40C9D75A20A476BA8D2A45F4F8E6

Скачать .torrent

Скачать

20 KB

Статус: проверено
Скачан: 0 раз
Размер: 239 MB
terms.php



Быстрый ответ

Имя:

      
Для отправки сообщений необходимо включить JavaScript
Показать сообщения:    

Текущее время: 20-Янв 16:53

Часовой пояс: UTC + 3


Вы можете начинать темы
Вы можете отвечать на сообщения
Вы не можете редактировать свои сообщения
Вы не можете удалять свои сообщения
Вы не можете голосовать в опросах
Вы не можете прикреплять файлы к сообщениям
Вы можете скачивать файлы