Верасы (Владимир Орлов) [1977, Музыкальное видео, DVDRip]


Статистика раздачи [Обновить пиров]
Размер:  309 MB   |    Зарегистрирован:  8 месяцев 22 дня   |    Скачан:  0 раз

Полного источника не было: Никогда

 
   
 
 
 

[Цитировать]

Верасы
Дата/Год выпуска: 1977
Страна: СССР
Жанр: Музыкальное видео
Продолжительность: 00:20:31
Перевод: Не требуется
Русские субтитры: нет
Оригинальная аудиодорожка: русский
Режиссер: Владимир Орлов
Описание: В телевизионном фильме-концерте звучат песни в исполнении вокально-инструментального ансамбля "Верасы" на музыку Е. Глебова, О. Иванова, И. Лученка, Б. Мокроусова, А. Пахмутовой, Э. Ханка.
Участвуют: ВИА «Верасы» в составе: Владимир Угольников, Леонид Кошелев, Люцина Шеметкова, Надежда Микулич, Александр Тиханович, Борис Антоненко, Алексей Чижиков, Ядвига Поплавская, Василий Раинчик (художественный руководитель). Ансамбль пантомимы «Рух» п/р В.Колесова.
Доп. информация: Релиз:
Исходный материал предоставил: некто Андрей
Автор релиза: pmv
Сэмпл: http://multi-up.com/973801
качество: DVDRip
формат: AVI
Видео: 720x544 (1.32:1), 25 fps, XviD build 73 ~1997 kbps avg, 0.20 bit/pixel
Аудио: 48 kHz, MPEG Layer 3, 1 ch, ~96.00 kbps avg

Список выпусков/серий

1 cерия

MediaInfo

Формат                                   : AVI
Формат/Информация : Audio Video Interleave
Размер файла : 309 Мбайт
Продолжительность : 20 м.
Общий поток : 2104 Кбит/сек
Библиотека кодирования : VirtualDub build 35512/release
Видео
Идентификатор : 0
Формат : MPEG-4 Visual
Профиль формата : Advanced Simple@L5
Параметр BVOP формата : 2
Параметр QPel формата : Нет
Параметр GMC формата : Без точки перехода
Параметр матрицы формата : Default (H.263)
Идентификатор кодека : XVID
Идентификатор кодека/Подсказка : XviD
Продолжительность : 20 м.
Битрейт : 1998 Кбит/сек
Ширина : 720 пикселей
Высота : 544 пикселя
Соотношение сторон : 4:3
Частота кадров : 25,000 кадров/сек
Цветовое пространство : YUV
Субдискретизация насыщенности : 4:2:0
Битовая глубина : 8 бит
Тип развёртки : Прогрессивная
Метод сжатия : С потерями
Бит/(Пиксели*Кадры) : 0.204
Размер потока : 293 Мбайт (95%)
Библиотека кодирования : XviD 73
Аудио
Идентификатор : 1
Формат : MPEG Audio
Версия формата : Version 1
Профиль формата : Layer 3
Идентификатор кодека : 55
Идентификатор кодека/Подсказка : MP3
Продолжительность : 20 м.
Вид битрейта : Постоянный
Битрейт : 96,0 Кбит/сек
Каналы : 1 канал
Частота : 48,0 КГц
Метод сжатия : С потерями
Задержка видео : 150 мс.
Размер потока : 14,1 Мбайт (5%)
Выравнивание : Разделение по промежуткам
Продолжительность промежутка : 40 мс. (1,00 видеокадр)
Время предзагрузки промежутка : 500 мс.

Скриншоты

[teatrix.ru].t18493.torrent 
Торрент: Зарегистрирован [ 2016-03-17 00:35 ] · D60D340E357AEB96E6D8205E6316622C79196C9C

Скачать .torrent

Скачать

13 KB

Статус: проверено
Скачан: 0 раз
Размер: 309 MB
terms.php



Быстрый ответ

Имя:

      
Для отправки сообщений необходимо включить JavaScript
Показать сообщения:    

Текущее время: 08-Дек 21:14

Часовой пояс: UTC + 3


Вы можете начинать темы
Вы можете отвечать на сообщения
Вы не можете редактировать свои сообщения
Вы не можете удалять свои сообщения
Вы не можете голосовать в опросах
Вы не можете прикреплять файлы к сообщениям
Вы можете скачивать файлы