Отчего ж нам не петь!.. (Владимир Орлов) [1968, Музыкальное видео, DVDRip]


Статистика раздачи [Обновить пиров]
Размер:  614 MB   |    Зарегистрирован:  8 месяцев 18 дней   |    Скачан:  0 раз

Полного источника не было: Никогда

 
   
 
 
 

[Цитировать]

Отчего ж нам не петь!..
Дата/Год выпуска: 1968
Страна: СССР
Жанр: Музыкальное видео
Продолжительность: 00:40:55
Перевод: Не требуется
Русские субтитры: нет
Оригинальная аудиодорожка: русский
Режиссер: Владимир Орлов
Телеканал: Белорусское телевидение
Описание: В фильме-концерте звучат песни Д. Смолького, В. Высоцкого, И. Лученка.
В кадре появляются молодой «битник» Юрий Антонов, эстрадный певец Виктор Вуячич, музыканты ВИА «Тоника» и «Алгоритмы», манекенщицы, танцовщицы, клоуны... В первый и последний раз на киноплёнку попал джазовый композитор Евгений Гришман.
А ещё... Ни в одном справочнике не упоминается этот фильм в связи с исполнением в нём Вуячичем песен Высоцкого "Аисты" и "Песни о новом времени". Не в худшем, надо сказать, исполнении.
Доп. информация: Релиз:
Исходный материал предоставил: некто Андрей
Автор релиза: pmv
Сэмпл: http://multi-up.com/973803
качество: DVDRip
формат: AVI
Видео: 720x544 (1.32:1), 25 fps, XviD build 73 ~1992 kbps avg, 0.20 bit/pixel
Аудио: 48 kHz, MPEG Layer 3, 1 ch, ~96.00 kbps avg

Список выпусков/серий

1 cерия

MediaInfo

Формат                                   : AVI
Формат/Информация : Audio Video Interleave
Размер файла : 614 Мбайт
Продолжительность : 40 м.
Общий поток : 2099 Кбит/сек
Библиотека кодирования : VirtualDub build 35512/release
Видео
Идентификатор : 0
Формат : MPEG-4 Visual
Профиль формата : Advanced Simple@L5
Параметр BVOP формата : 2
Параметр QPel формата : Нет
Параметр GMC формата : Без точки перехода
Параметр матрицы формата : Default (H.263)
Идентификатор кодека : XVID
Идентификатор кодека/Подсказка : XviD
Продолжительность : 40 м.
Битрейт : 1993 Кбит/сек
Ширина : 720 пикселей
Высота : 544 пикселя
Соотношение сторон : 4:3
Частота кадров : 25,000 кадров/сек
Цветовое пространство : YUV
Субдискретизация насыщенности : 4:2:0
Битовая глубина : 8 бит
Тип развёртки : Прогрессивная
Метод сжатия : С потерями
Бит/(Пиксели*Кадры) : 0.204
Размер потока : 583 Мбайт (95%)
Библиотека кодирования : XviD 73
Аудио
Идентификатор : 1
Формат : MPEG Audio
Версия формата : Version 1
Профиль формата : Layer 3
Идентификатор кодека : 55
Идентификатор кодека/Подсказка : MP3
Продолжительность : 40 м.
Вид битрейта : Постоянный
Битрейт : 96,0 Кбит/сек
Каналы : 1 канал
Частота : 48,0 КГц
Метод сжатия : С потерями
Задержка видео : 200 мс.
Размер потока : 28,1 Мбайт (5%)
Выравнивание : Разделение по промежуткам
Продолжительность промежутка : 40 мс. (1,00 видеокадр)
Время предзагрузки промежутка : 500 мс.

Скриншоты

[teatrix.ru].t18494.torrent 
Торрент: Зарегистрирован [ 2016-03-17 00:34 ] · B7ACF14E3F1185B62A21F8607A3B371301172DDD

Скачать .torrent

Скачать

12 KB

Статус: проверено
Скачан: 0 раз
Размер: 614 MB
terms.php



Быстрый ответ

Имя:

      
Для отправки сообщений необходимо включить JavaScript
Показать сообщения:    

Текущее время: 04-Дек 17:18

Часовой пояс: UTC + 3


Вы можете начинать темы
Вы можете отвечать на сообщения
Вы не можете редактировать свои сообщения
Вы не можете удалять свои сообщения
Вы не можете голосовать в опросах
Вы не можете прикреплять файлы к сообщениям
Вы можете скачивать файлы