(Classical, sacred) Andre Campra - Motets pour Notre-Dame de Paris - Ensemble Aquilon, Sebastien Mahieuxe - 2009, FLAC (image+.cue) lossless


Статистика раздачи [Обновить пиров]
Размер:  383 MB   |    Зарегистрирован:  8 месяцев 22 дня   |    Скачан:  0 раз

Полного источника не было: Никогда

 
   
 
 
 

[Цитировать]

André Campra - Motets pour Notre-Dame de Paris - Ensemble Aquilon, Sébastien Mahieuxe
Жанр: Classical, sacred
Страна-производитель диска: France
Год издания диска: 2009
Издатель (лейбл): K617
Номер по каталогу: K617217
Дата записи: 2009
Аудиокодек: FLAC
Тип рипа: image+.cue
Битрейт аудио: lossless
Продолжительность: 67:55
Источник: собственный рип
Наличие сканов в содержимом раздачи: да
Треклист:
André Campra (1660-1744)
Motets pour Notre-Dame de Paris
[1]-[4] Immensus es Domine
[5] In te Domine spes mea
[6] Tota pulchra es
[7]-[11] Quam dilecta tabernacula tua
[12]-[15] Ecce panis angelorum
[16]-[21] Salvum me fac Deus
Исполнители:
Ensemble Aquilon
Sébastien Mahieuxe

Лог создания рипа

Exact Audio Copy V1.0 beta 3 from 29. August 2011
EAC extraction logfile from 14. March 2014, 17:48
Ensemble Aquilon / Campra - Motets pour Notre-Dame de Paris
Used drive : HL-DT-STDVDRRW GWA-4164B Adapter: 5 ID: 0
Read mode : Secure
Utilize accurate stream : Yes
Defeat audio cache : Yes
Make use of C2 pointers : No
Read offset correction : 102
Overread into Lead-In and Lead-Out : No
Fill up missing offset samples with silence : Yes
Delete leading and trailing silent blocks : No
Null samples used in CRC calculations : Yes
Used interface : Native Win32 interface for Win NT & 2000
Used output format : User Defined Encoder
Selected bitrate : 896 kBit/s
Quality : High
Add ID3 tag : No
Command line compressor : C:\Program Files\Exact Audio Copy\FLAC\FLAC.EXE
Additional command line options : -V -8 %source%
TOC of the extracted CD
Track | Start | Length | Start sector | End sector
---------------------------------------------------------
1 | 0:00.00 | 5:56.43 | 0 | 26742
2 | 5:56.43 | 1:35.14 | 26743 | 33881
3 | 7:31.57 | 5:15.21 | 33882 | 57527
4 | 12:47.03 | 2:00.41 | 57528 | 66568
5 | 14:47.44 | 8:37.51 | 66569 | 105394
6 | 23:25.20 | 6:20.02 | 105395 | 133896
7 | 29:45.22 | 3:33.44 | 133897 | 149915
8 | 33:18.66 | 0:52.27 | 149916 | 153842
9 | 34:11.18 | 0:40.28 | 153843 | 156870
10 | 34:51.46 | 1:23.57 | 156871 | 163152
11 | 36:15.28 | 1:47.28 | 163153 | 171205
12 | 38:02.56 | 3:19.38 | 171206 | 186168
13 | 41:22.19 | 1:24.13 | 186169 | 192481
14 | 42:46.32 | 2:53.66 | 192482 | 205522
15 | 45:40.23 | 3:36.09 | 205523 | 221731
16 | 49:16.32 | 4:17.11 | 221732 | 241017
17 | 53:33.43 | 3:29.40 | 241018 | 256732
18 | 57:03.08 | 1:10.73 | 256733 | 262055
19 | 58:14.06 | 2:18.01 | 262056 | 272406
20 | 60:32.07 | 3:44.60 | 272407 | 289266
21 | 64:16.67 | 3:31.22 | 289267 | 305113
Range status and errors
Selected range
Filename D:\temp\Music\K617217 - Campra - Motets pour Notre-Dame de Paris\Campra - Motets pour Notre-Dame de Paris.wav
Peak level 97.3 %
Extraction speed 2.8 X
Range quality 100.0 %
Test CRC AC28C0F7
Copy CRC AC28C0F7
Copy OK
No errors occurred
AccurateRip summary
Track 1 accurately ripped (confidence 4) [101B45FD] (AR v2)
Track 2 accurately ripped (confidence 4) [565712DD] (AR v2)
Track 3 accurately ripped (confidence 4) [86254759] (AR v2)
Track 4 accurately ripped (confidence 4) [D755790A] (AR v2)
Track 5 accurately ripped (confidence 4) [76BCD185] (AR v2)
Track 6 accurately ripped (confidence 4) [1ACD2A19] (AR v2)
Track 7 accurately ripped (confidence 4) [914FDDB8] (AR v2)
Track 8 accurately ripped (confidence 4) [E47CD1A2] (AR v2)
Track 9 accurately ripped (confidence 4) [F7B991C0] (AR v2)
Track 10 accurately ripped (confidence 4) [845D497F] (AR v2)
Track 11 accurately ripped (confidence 4) [4DF0A26A] (AR v2)
Track 12 accurately ripped (confidence 4) [7265C600] (AR v2)
Track 13 accurately ripped (confidence 4) [4491BA7F] (AR v2)
Track 14 accurately ripped (confidence 4) [4D4C990F] (AR v2)
Track 15 accurately ripped (confidence 4) [C156AB1F] (AR v2)
Track 16 accurately ripped (confidence 4) [88BA629A] (AR v2)
Track 17 accurately ripped (confidence 4) [DB44F83D] (AR v2)
Track 18 accurately ripped (confidence 4) [FF69D57C] (AR v2)
Track 19 accurately ripped (confidence 4) [64B1180B] (AR v2)
Track 20 accurately ripped (confidence 4) [3646D23F] (AR v2)
Track 21 accurately ripped (confidence 3) [72F288A7] (AR v2)
All tracks accurately ripped
End of status report
==== Log checksum 8E6E790DF935A4DE0FBA4E35281FA2673E61CE37FFE8D9A6D227DC2D045E4DBF ====
[teatrix.ru].t18496.torrent 
Торрент: Зарегистрирован [ 2016-03-17 00:34 ] · 685C691ADD3F3E525F99785A0CE059AAD2B61EB1

Скачать .torrent

Скачать

32 KB

Статус: проверено
Скачан: 0 раз
Размер: 383 MB
terms.php



Быстрый ответ

Имя:

      
Для отправки сообщений необходимо включить JavaScript
Показать сообщения:    

Текущее время: 08-Дек 12:56

Часовой пояс: UTC + 3


Вы можете начинать темы
Вы можете отвечать на сообщения
Вы не можете редактировать свои сообщения
Вы не можете удалять свои сообщения
Вы не можете голосовать в опросах
Вы не можете прикреплять файлы к сообщениям
Вы можете скачивать файлы