Обратный отсчет. Неправильные песни (Владимир Орлов, руководитель проекта: Владимир Бакун) [2012, История бардовской песни, DVDRip]


Статистика раздачи [Обновить пиров]
Размер:  401 MB   |    Зарегистрирован:  8 месяцев 21 день   |    Скачан:  0 раз

Полного источника не было: Никогда

 
   
 
 
 

[Цитировать]

Обратный отсчет. Неправильные песни
Дата/Год выпуска: 2012
Страна: Беларусь
Жанр: История бардовской песни
Продолжительность: 00:26:38
Перевод: Не требуется
Русские субтитры: нет
Оригинальная аудиодорожка: русский
Режиссер: Владимир Орлов, руководитель проекта: Владимир Бакун
Телеканал: ЗАО "Второй национальный телеканал"
Описание: В октябре 1971 года в газете "Правда" появился фельетон "Сколько стоит пароход". В нем говорилось о необычном слете туристов, проходившем на борту лайнера "Иван Франко" во время круиза по Черному морю. По мнению автора, на теплоходе был устроен подпольный фестиваль. Статья в главной газете страны звучала, как приговор, всему движению авторской песни....После ее публикации на самодеятельных музыкантов, поэтов начались гонения. Что же задело партийных идеологов в безобидных песнях под гитару?....
Доп. информация: Релиз:
Исходный материал предоставил: некто Андрей
Автор релиза: pmv
качество: DVDRip
формат: AVI
Видео: 720x408 (1.76:1), 25 fps, XviD build 73 ~1999 kbps avg, 0.27 bit/pixel
Аудио: 48 kHz, MPEG Layer 3, 1 ch, ~96.00 kbps avg

Список выпусков/серий

1 серия

MediaInfo

Формат                                   : AVI
Формат/Информация : Audio Video Interleave
Размер файла : 401 Мбайт
Продолжительность : 26 м.
Общий поток : 2106 Кбит/сек
Библиотека кодирования : VirtualDub build 35512/release
Видео
Идентификатор : 0
Формат : MPEG-4 Visual
Профиль формата : Advanced Simple@L5
Параметр BVOP формата : 2
Параметр QPel формата : Нет
Параметр GMC формата : Без точки перехода
Параметр матрицы формата : Default (H.263)
Идентификатор кодека : XVID
Идентификатор кодека/Подсказка : XviD
Продолжительность : 26 м.
Битрейт : 2000 Кбит/сек
Ширина : 720 пикселей
Высота : 408 пикселей
Соотношение сторон : 16:9
Частота кадров : 25,000 кадров/сек
Цветовое пространство : YUV
Субдискретизация насыщенности : 4:2:0
Битовая глубина : 8 бит
Тип развёртки : Прогрессивная
Метод сжатия : С потерями
Бит/(Пиксели*Кадры) : 0.272
Размер потока : 381 Мбайт (95%)
Библиотека кодирования : XviD 73
Аудио
Идентификатор : 1
Формат : MPEG Audio
Версия формата : Version 1
Профиль формата : Layer 3
Идентификатор кодека : 55
Идентификатор кодека/Подсказка : MP3
Продолжительность : 26 м.
Вид битрейта : Постоянный
Битрейт : 96,0 Кбит/сек
Каналы : 1 канал
Частота : 48,0 КГц
Метод сжатия : С потерями
Размер потока : 18,3 Мбайт (5%)
Выравнивание : Разделение по промежуткам
Продолжительность промежутка : 40 мс. (1,00 видеокадр)
Время предзагрузки промежутка : 500 мс.
[teatrix.ru].t18501.torrent 
Торрент: Зарегистрирован [ 2016-03-17 00:34 ] · D0547B82F8937CCC789022A6A50536C018639E82

Скачать .torrent

Скачать

16 KB

Статус: проверено
Скачан: 0 раз
Размер: 401 MB
terms.php



Быстрый ответ

Имя:

      
Для отправки сообщений необходимо включить JavaScript
Показать сообщения:    

Текущее время: 07-Дек 19:29

Часовой пояс: UTC + 3


Вы можете начинать темы
Вы можете отвечать на сообщения
Вы не можете редактировать свои сообщения
Вы не можете удалять свои сообщения
Вы не можете голосовать в опросах
Вы не можете прикреплять файлы к сообщениям
Вы можете скачивать файлы