(Classical, sacred) Leos Janacek: Mass in E flat • Zoltan Kodaly: Missa brevis; Laudes organi - The Choir of Westminster Cathedral, Andrew Reid, James O'Donnell - 2000, FLAC (image+.cue) lossless


Статистика раздачи [Обновить пиров]
Размер:  252 MB   |    Зарегистрирован:  8 месяцев 17 дней   |    Скачан:  0 раз

Полного источника не было: Никогда

 
   
 
 
 

[Цитировать]

Leoš Janáček: Mass in E flat • Zoltán Kodály: Missa brevis; Laudes organi - The Choir of Westminster Cathedral, Andrew Reid, James O'Donnell
Жанр: Classical, sacred
Страна-производитель диска: UK
Год издания диска: 2000
Издатель (лейбл): Hyperion
Номер по каталогу: CDA67147
Дата записи: 1999
Аудиокодек: FLAC
Тип рипа: image+.cue
Битрейт аудио: lossless
Продолжительность: 72:40
Источник: собственный рип
Наличие сканов в содержимом раздачи: да
Треклист:
Zoltán Kodály (1882-1967)
[1]-[8] Missa brevis (1943/4)
[9]-[16] Laudes organi (1966)
Leoš Janáček (1854-1928)
[17]-[20] Mass in E flat (c1908)
Исполнители:
The Choir of Westminster Cathedral
Andrew Reid
organ
James O'Donnell The Master of Music

Лог создания рипа

Exact Audio Copy V1.0 beta 3 from 29. August 2011
EAC extraction logfile from 29. April 2014, 1:26
Westminster Cathedral Choir, James O'Donnell / Kodaly - Missa brevis; Janacek - Mass in E flat
Used drive : HL-DT-STDVDRAM GSA-4083N Adapter: 1 ID: 0
Read mode : Secure
Utilize accurate stream : Yes
Defeat audio cache : Yes
Make use of C2 pointers : No
Read offset correction : 667
Overread into Lead-In and Lead-Out : No
Fill up missing offset samples with silence : Yes
Delete leading and trailing silent blocks : No
Null samples used in CRC calculations : Yes
Used interface : Native Win32 interface for Win NT & 2000
Used output format : User Defined Encoder
Selected bitrate : 896 kBit/s
Quality : High
Add ID3 tag : No
Command line compressor : C:\Program Files\Exact Audio Copy\Flac\flac.exe
Additional command line options : -V -8 %source%
TOC of the extracted CD
Track | Start | Length | Start sector | End sector
---------------------------------------------------------
1 | 0:00.00 | 3:01.66 | 0 | 13640
2 | 3:01.66 | 2:41.42 | 13641 | 25757
3 | 5:43.33 | 4:21.03 | 25758 | 45335
4 | 10:04.36 | 6:20.03 | 45336 | 73838
5 | 16:24.39 | 2:25.54 | 73839 | 84767
6 | 18:50.18 | 3:35.42 | 84768 | 100934
7 | 22:25.60 | 5:42.23 | 100935 | 126607
8 | 28:08.08 | 3:42.16 | 126608 | 143273
9 | 31:50.24 | 4:10.42 | 143274 | 162065
10 | 36:00.66 | 1:34.30 | 162066 | 169145
11 | 37:35.21 | 2:13.15 | 169146 | 179135
12 | 39:48.36 | 1:31.48 | 179136 | 186008
13 | 41:20.09 | 1:10.12 | 186009 | 191270
14 | 42:30.21 | 3:13.71 | 191271 | 205816
15 | 45:44.17 | 2:31.22 | 205817 | 217163
16 | 48:15.39 | 3:05.14 | 217164 | 231052
17 | 51:20.53 | 5:53.58 | 231053 | 257585
18 | 57:14.36 | 8:10.03 | 257586 | 294338
19 | 65:24.39 | 3:32.06 | 294339 | 310244
20 | 68:56.45 | 3:41.62 | 310245 | 326881
Range status and errors
Selected range
Filename J:\New Music\Kodaly - Missa brevis; Janacek - Mass in E flat\Kodaly - Missa brevis; Janacek - Mass in E flat.wav
Peak level 100.0 %
Extraction speed 2.7 X
Range quality 100.0 %
Test CRC DD2CF36C
Copy CRC DD2CF36C
Copy OK
No errors occurred
AccurateRip summary
Track 1 not present in database
Track 2 not present in database
Track 3 not present in database
Track 4 not present in database
Track 5 not present in database
Track 6 not present in database
Track 7 not present in database
Track 8 not present in database
Track 9 not present in database
Track 10 not present in database
Track 11 not present in database
Track 12 not present in database
Track 13 not present in database
Track 14 not present in database
Track 15 not present in database
Track 16 cannot be verified as accurate (confidence 1) [CC9991CB], AccurateRip returned [046861B8] (AR v2)
Track 17 not present in database
Track 18 not present in database
Track 19 not present in database
Track 20 not present in database
1 track(s) could not be verified as accurate
19 track(s) not present in the AccurateRip database
No tracks could be verified as accurate
You may have a different pressing from the one(s) in the database
End of status report
==== Log checksum 7514AD534FD4A5CAE3B3A25F52448681185B1AC9DA458A58CBDB6517D69C36CE ====
[teatrix.ru].t18508.torrent 
Торрент: Зарегистрирован [ 2016-03-17 00:34 ] · B06DCFD232CDF823E6353029F5B6901984AE0ECB

Скачать .torrent

Скачать

41 KB

Статус: проверено
Скачан: 0 раз
Размер: 252 MB
terms.php



Быстрый ответ

Имя:

      
Для отправки сообщений необходимо включить JavaScript
Показать сообщения:    

Текущее время: 03-Дек 09:40

Часовой пояс: UTC + 3


Вы можете начинать темы
Вы можете отвечать на сообщения
Вы не можете редактировать свои сообщения
Вы не можете удалять свои сообщения
Вы не можете голосовать в опросах
Вы не можете прикреплять файлы к сообщениям
Вы можете скачивать файлы