(Classical) Tristan Keuris - Complete Works (11 CD) - 2010, FLAC (image+.cue) lossless


Статистика раздачи [Обновить пиров]
Размер:  3.37 GB   |    Зарегистрирован:  8 месяцев 24 дня   |    Скачан:  0 раз

Полного источника не было: Никогда

 
   
 
 
 

[Цитировать]

Tristan Keuris - Complete Works
Жанр: Classical
Страна-производитель диска: EU
Год издания диска: 2010
Издатель (лейбл): Quattro Records
Номер по каталогу: 8243773
Дата записи: 1966 - 2007
Аудиокодек: FLAC
Тип рипа: image+.cue
Битрейт аудио: lossless
Продолжительность: 11 CD
Источник: скачано с AwaxHome
Наличие сканов в содержимом раздачи: да

ТреклистCD 1

01. Quartet for orchestra [Utrecht Symphony Orchestra, Paul Hupperts] [0:08:41.00]
02. Play for clarinet and piano [Herman Braune, Clarinet; Agnès Benoist, Piano] [0:07:06.52]
Choral Music 1 for orchestra. [Netherlands Radio Chamber Philharmonic, Henrik Schaefer]
03. I. [0:01:07.41]
04. II. [0:02:13.17]
05. III. [0:00:34.00]
06. IV. [0:01:12.40]
07. V. [0:00:49.74]
08. . VI. [0:02:55.67]
09. Saxophone Quartet [Netherlands Saxophone Quartet] [0:08:10.00]
10. Sonata for piano [René Eckhardt, Piano] [0:08:44.41]
11. Alto Saxophone Concerto [Netherlands Radio Chamber Philharmonic, Hans Leenders; Arno Bornkamp, Alto Saxophone] [0:10:45.74]
12. Concertante Music for nine instruments [Ensemble M, David Porcelijn] [0:06:52.16]
13. Music for violin, clarinet and piano [Lars Wouters van den Oudenweijer, Clarinet; Naomi Peters, Violin; Jan Gruithuyzen, Piano] [0:09:45.30]

CD 2

01. Sinfonia for orchestra (1972-1974) [0:12:14.38]
02. Fantasia for flute (1976) [0:08:33.34]
03. Serenade for oboe and orchestra (1974-1976) [0:11:47.36]
04. Fingerprints for piano (1976) - deel I [0:01:24.17]
05. deel II Pesante [0:01:11.35]
06. Concertino for string quartet and bass clarinet (1976-1977, rev. 1979) - deel I Allegro [0:02:10.28]
07. deel II Lento [0:04:41.40]
08. deel III Allegro molto [0:03:12.58]
09. Sonata for violin and piano (1977) [0:11:25.73]
10. Capriccio for 12 wind instruments and double bass (1978) [0:08:41.46]

CD 3

Piano Concerto.
01. Lento. [Rotterdam Philharmonic Orchestra, Richard Dufallo; Theo Bruins, Piano] [0:07:45.16]
02. Animato. [Rotterdam Philharmonic Orchestra, Richard Dufallo; Theo Bruins, Piano] [0:15:41.02]
Eight miniatures for six players.
03. I. Quasi allegretto [Nieuw Ensemble, Otto Ketting] [0:02:13.45]
04. II. Molto moderato [Nieuw Ensemble, Otto Ketting] [0:00:40.14]
05. III. Lento [Nieuw Ensemble, Otto Ketting] [0:01:45.64]
06. . IV. Agitato [Nieuw Ensemble, Otto Ketting] [0:01:12.32]
07. V. Moderato [Nieuw Ensemble, Otto Ketting] [0:00:50.47]
08. VI. Molto animato [Nieuw Ensemble, Otto Ketting] [0:01:04.25]
09. . VII. Molto moderato [Nieuw Ensemble, Otto Ketting] [0:00:25.13]
10. VIII. Tranquillo [Nieuw Ensemble, Otto Ketting] [0:01:21.15]
Movements for orchestra.
11. I. Scorrevole e leggiero [Royal Concertgebouw Orchestra, Bernard Haitink] [0:06:17.18]
12. II. Lento [Royal Concertgebouw Orchestra, Bernard Haitink] [0:06:36.60]
13. . III. ? = 63 [Royal Concertgebouw Orchestra, Bernard Haitink] [0:05:30.49]
14. IV. Molto animato [Royal Concertgebouw Orchestra, Bernard Haitink] [0:04:30.48]
Divertimento for violin, wind quintet, piano and double bass
15. . I. Introduzione - Allegretto [0:04:21.21]
16. II. Lento [0:04:29.09]
17. III. Agitato [0:03:14.25]

CD 4

String Quartet No. 1 (1982) - deel
01. I Introduzione ? Animato [0:08:41.52]
02. II Calando ? Molto lento [0:07:14.61]
03. III Quasi agitato [0:06:41.34]
Seven Pieces for bass clarinet and chamber orchestra (1983) - deel
04. I Preludium [0:00:58.53]
05. II Moderato [0:02:46.63]
06. III Allegrato [0:02:38.73]
07. IV Molto tranquillo [0:02:47.34]
08. V Animato [0:02:29.25]
09. VI Lento [0:03:58.53]
10. VII Postludium [0:01:59.45]
Clarinet Quartet (1983) - deel
11. I Vigoroso [0:04:06.41]
12. II Molto tranquillo [0:02:52.20]
13. III Grazioso molto comodo [0:03:25.62]
14. IV Moderato senza espressione [0:01:59.27]
15. V Scorrevole molto leggiero [0:03:37.69]
16. Piano Trio (1984) [0:16:29.65]

CD 5

Violin Concerto No. 1.
01. I. Vigoroso [Netherlands Radio Philharmonic Orchestra, Elgar Howarth; Joan Berkhemer, Violin] [0:09:25.01]
02. II. Lento [Netherlands Radio Philharmonic Orchestra, Elgar Howarth; Joan Berkhemer, Violin] [0:06:29.00]
03. 1. III. Animato, Presto (Quasi di lontano) [Nl Radio Philh. Orch., Elgar Howarth; Joan Berkhemer, Violin] [0:07:35.06]
04. String Quartet No. 2 [Raphael Quartet] [0:21:23.68]
05. Variations for Strings [Netherlands Radio Chamber Philharmonic, Henrik Schaefer] [0:11:29.34]
06. Music for Saxophones [Aurelia Saxophone Quartet] [0:18:02.42]

CD 6

01. Concerto for saxophone quartet and orchestra [Nl Radio Ph. O., Otto Tausk; Raschèr Saxophone Quartet] [0:21:44.60]
02. Symphonic Transformations [Netherlands Radio Philharmonic Orchestra, Micha Hamel] [0:14:00.51]
03. Aria for flute and orchestra [Nl Radio Chamber Ph., Henrik Schaefer, Ingrid Geerlings, Flute] [0:08:05.43]
04. Aria for flute and piano [Jacques Zoon, Flute; Bernd Brackman, Piano] [0:08:44.44]
05. To Brooklyn Bridge for 24 voices and ensemble [The Hague Philh.-Nl Chamber Choir-Aurelia Sax Quartet, Anne Manson] [0:24:27.63]

CD 7

Five Pieces for brass quintet
01. I. Preludium [Brass Quintet of the Royal Concertgebouw Orchestra] [0:03:02.47]
02. II. Capriccio [Brass Quintet of the Royal Concertgebouw Orchestra] [0:02:04.04]
03. III. Elegia [Brass Quintet of the Royal Concertgebouw Orchestra] [0:03:48.38]
04. IV. Caccia [Brass Quintet of the Royal Concertgebouw Orchestra] [0:01:58.28]
05. V. Postludium [Brass Quintet of the Royal Concertgebouw Orchestra] [0:03:04.74]
Clarinet Quintet for clarinet & string quartet.
06. I. Lamento [Orlando Quartet; George Pieterson, Clarinet] [0:06:26.35]
07. II. Scherzo [Orlando Quartet; George Pieterson, Clarinet] [0:04:31.24]
08. III. Elegia [Orlando Quartet; George Pieterson, Clarinet] [0:05:22.18]
09. . IV. Finale: Impetuoso [Orlando Quartet; George Pieterson, Clarinet] [0:05:08.74]
10. Catena: Refrains and Variations for 31 wind instruments, percussion and celesta [RCO, Edo de Waart] [0:14:57.11]
Intermezzi for nine wind instruments.
11. I. Molto moderato [Wind Ensemble of The Hague Ph., Wim Roerade] [0:02:23.43]
12. II. Energico [Wind Ensemble of The Hague Ph., Wim Roerade] [0:01:16.60]
13. III. Lento [Wind Ensemble of The Hague Ph., Wim Roerade] [0:03:30.34]
14. IV. Poco agitato e molto leggiero [Wind Ensemble of The Hague Ph., Wim Roerade] [0:01:45.10]
15. V. Molto moderato [Wind Ensemble of The Hague Ph., Wim Roerade] [0:02:48.12]
Three Sonnets for alto saxophone and orchestra.
16. I. Lento molto e sereno [The Hague Ph., Jurjen Hempel; Kelly, Alto Sax] [0:06:31.63]
17. II. Presto [The Hague Ph., Jurjen Hempel; John-Edward Kelly, Alto Sax] [0:03:22.58]
18. III. ? = 63 [The Hague Ph., Jurjen Hempel; Kelly, Alto Sax] [0:06:54.46]

CD 8

01. Canzone for clarinet [Esther Misbeek, Clarinet] [0:07:29.56]
Three Michelangelo Songs for mezzo-soprano and orchestra.
02. I. O notte, dolce tempo [HGO, Lucas Vis; Jard van Nes, M-Soprano] [0:05:53.33]
03. II. Sulla morte di Cecchino Bracci [HGO, Lucas Vis; van Nes, M-S] [0:03:19.34]
04. III. Di morte certo, ma non già dell'ora [HGO, Lucas Vis; v Nes, M-S] [0:08:07.67]
05. Passeggiate for four recorder players [Amsterdam Loekie Stardust Quartet] [0:11:51.34]
L'Infinito for vocal quintet and 17 instruments.
06. I. La ricordanza [The Hague Philharmonic, Anne Manson; Nl Chamber Ch.(members) [0:05:44.45]
07. II. E pure la vita è una cosa bella [The Hague Ph., Anne Manson; Nl Ch. C. (m) [0:05:57.03]
08. III. L'Infinito [The Hague Philh., Anne Manson; Nl Chamber Choir (members) [0:08:26.63]
09. Antologia for orchestra [Royal Concertgebouw Orchestra, David Robertson] [0:14:20.29]

CD 9

Double Concert for two cellos and orchestra.
01. I. Moderato - Doppio movimento [Nl Radio S.O.,Pascal Rophé; Kirschbaum & Horsch] [0:09:34.17]
02. . II. Lento [Nl Radio S.O.,Pascal Rophé; Ralph Kirschbaum & Gregor Horsch, Violonc] [0:08:50.50]
03. III. Finale: Impetuoso [Nl Radio S.O.,Pascal Rophé; Kirschbaum & Horsch, Violonc] [0:04:18.53]
Laudi.
04. I. Introduzione [0:06:20.29]
05. La sera Fiesolana [0:04:08.55]
06. . L'orma [0:04:15.20]
07. . II. Terra, vale! [0:06:13.52]
08. III. Tristezza [0:02:34.30]
09. Implorazione [0:02:40.37]
10. IV. I Pastori [0:12:59.63]

CD 10

Organ Concerto.
01. I. Recitativo [Royal Concertgebouw Orchestra, Riccardo Chailly; Leo van Doesselaar, Organ] [0:03:56.66]
02. II. Capriccio [Royal Concertgebouw Orchestra, Riccardo Chailly; Leo van Doesselaar, Organ] [0:04:02.36]
03. . III. Intermezzo e toccata [Royal Concertgebouw Orchestra, Riccardo Chailly; Leo van Doesselaar, Organ] [0:06:27.30]
04. IV. Recitativo [Royal Concertgebouw Orchestra, Riccardo Chailly; Leo van Doesselaar, Organ] [0:07:19.09]
Three Preludes.
05. I. Sostenuto [Royal Concertgebouw Orchestra, Riccardo Chailly] [0:02:32.04]
06. II. Andante [Royal Concertgebouw Orchestra, Riccardo Chailly] [0:03:23.53]
07. III. Molto vivace [Royal Concertgebouw Orchestra, Riccardo Chailly] [0:02:02.28]
String Sextet.
08. I. Molto allegro [Valerius Ensemble] [0:07:42.71]
09. II. Intermezzo - Scherzo - Intermezzo [Valerius Ensemble] [0:08:43.13]
10. III. Introduzione - Finale [Valerius Ensemble] [0:05:53.09]
Symphony in D.
11. I. Allegro molto [Netherlands Radio Chamber Orchestra, Peter Eötvös] [0:08:22.29]
12. II. Molto tranquillo [Netherlands Radio Chamber Orchestra, Peter Eötvös] [0:07:56.53]
13. III. Scherzo [Netherlands Radio Chamber Orchestra, Peter Eötvös] [0:03:25.07]
14. . IV. Introduzione - Rondo finale [Netherlands Radio Chamber Orchestra, Peter Eötvös] [0:06:17.73]

CD 11


Chamber Concerto for accordion and ensemble.

01. I. Poco maestoso [Nl Radio Chamber Ph., Micha Hamel; Miny Dekkers, Accordion] [0:02:51.49]
02. II. Agitato assai, leggiero [Nl Radio Chamber Ph., Hamel; Miny Dekkers, Accordion] [0:02:41.29]
03. III. Molto tranquillo [Nl Radio Chamber Ph., Micha Hamel; Miny Dekkers, Accordion] [0:02:24.63]
04. IV. Poco andante, comodo [Nl Radio Chamber Ph., Hamel; Miny Dekkers, Accordion] [0:02:21.44]
05. V. Molto vivo [Nl Radio Chamber Ph., Micha Hamel; Miny Dekkers, Accordion] [0:03:51.48]
Violin Concerto No. 2.
06. I. Allegro moderato [Netherlands Radio Chamber Orchestra, Peter Eötvös; Yayoi Toda, Violin] [0:13:21.38]
07. II. Molto espressivo [Netherlands Radio Chamber Orchestra, Peter Eötvös; Yayoi Toda, Violin] [0:12:02.29]
08. 2. III. Molto vivo [Netherlands Radio Chamber Orchestra, Peter Eötvös; Yayoi Toda, Violin] [0:10:00.00]
Arcade, six more preludes for orchestra.
09. I. Aureole [Netherlands Radio Philharmonic Orchestra, David Porcelijn] [0:03:39.00]
10. II. Campanile [Netherlands Radio Philharmonic Orchestra, David Porcelijn] [0:00:50.33]
11. III. Colonnade [Netherlands Radio Philharmonic Orchestra, David Porcelijn] [0:03:15.56]
12. IV. Arabesques [Netherlands Radio Philharmonic Orchestra, David Porcelijn] [0:02:24.28]
13. V. Cenotaph [Netherlands Radio Philharmonic Orchestra, David Porcelijn] [0:02:23.04]
14. VI. Cornice [Netherlands Radio Philharmonic Orchestra, David Porcelijn] [0:02:15.55]

Исполнители

Conductors on Tristan Keuris: Riccardo Chailly, Edo De Waart, Peter Eotvos, Bernard Haitink, Micha Hamel, Jurgen Hempel, Elgar Howarth, Otto Ketting, Hans Leenders, Anne Manson, Otto Tausk, Paul Hupperts, David Porcelijn, Richard Dufallo, David Robertson, Wim Roerade, Pascal Rophe, Henrik Schaefer, Lucas Vis, Frank Zielhorst
Ensembles on Tristan Keuris: Amsterdam Loeki Stardust Quartet, Aurelia Saxophone Quartet, Brass of the Royal Concertgebouw Orchestra (Brass), Ensemble M, Ensemble of the Royal Conservatory of the Hague, Gaudeamus Quartet, Netherlands Clarinet Quartet, Netherlands Saxophone Quartet, Nieuw Ensemble, Orlando Quartet, Rascher Saxophone Quartet, Storioni Trio, Valerius Ensemble, Wind Ensemble of the Hague Philharmonic
Performers on Tristan Keuris: Marcel Beekman, Agnes Benoist, Joan Berkhemer, Arno Bornkamp, Bernd Brackman, Herman Braune, Theo Bruins, Rene Eckhardt, Ingrid Geerlings, Jan Gruithuyzen, Gregor Horsch, John Edward Kelly [Saxophone], Ralph Kirshbaum, Kees-Jan de Koning, Miny Dekkers, Esther Misbeek, Carlos Moerdijk, Naomi Peters, George Pieterson, David Pittman-Jennings, Karin van der Poel, Thies Roorda, Harry Sparnaay, Yayoi Toda, Lars Wouters van den Oudenwijer, Leo Van Doeselaar, Frank Van Koten, Jard Van Nes, Ralph van Raat, Emmy Verhey, Tannie Willemstijn, Jacques Zoon

Лог создания рипаCD 1

Exact Audio Copy V0.99 prebeta 4 from 23. January 2008
EAC extraction logfile from 19. March 2010, 1:30
Tristan Keuris [1946-1996] / Complete Works (Disc 1)
Used drive : HL-DT-STDVD-ROM GDR8163B Adapter: 1 ID: 1
Read mode : Secure
Utilize accurate stream : Yes
Defeat audio cache : Yes
Make use of C2 pointers : No
Read offset correction : 102
Overread into Lead-In and Lead-Out : No
Fill up missing offset samples with silence : Yes
Delete leading and trailing silent blocks : No
Null samples used in CRC calculations : No
Used interface : Native Win32 interface for Win NT & 2000
Used output format : User Defined Encoder
Selected bitrate : 768 kBit/s
Quality : High
Add ID3 tag : No
Command line compressor : D:\Archivos de programa\Exact Audio Copy\FLAC\FLAC.EXE
Additional command line options : -6 -V -T "ARTIST=%a" -T "TITLE=%t" -T "ALBUM=%g" -T "DATE=%y" -T "TRACKNUMBER=%n" -T "GENRE=%m" -T "COMMENT=%e" %s -o %d
TOC of the extracted CD
Track | Start | Length | Start sector | End sector
---------------------------------------------------------
1 | 0:00.00 | 8:41.00 | 0 | 39074
2 | 8:41.00 | 7:06.52 | 39075 | 71076
3 | 15:47.52 | 1:07.41 | 71077 | 76142
4 | 16:55.18 | 2:13.17 | 76143 | 86134
5 | 19:08.35 | 0:34.00 | 86135 | 88684
6 | 19:42.35 | 1:12.40 | 88685 | 94124
7 | 20:55.00 | 0:49.74 | 94125 | 97873
8 | 21:44.74 | 2:55.67 | 97874 | 111065
9 | 24:40.66 | 8:10.00 | 111066 | 147815
10 | 32:50.66 | 8:44.41 | 147816 | 187156
11 | 41:35.32 | 10:45.74 | 187157 | 235605
12 | 52:21.31 | 6:52.16 | 235606 | 266521
13 | 59:13.47 | 9:45.30 | 266522 | 310426
Range status and errors
Selected range
Filename D:\KEURIS\Tristan Keuris [1946-1996] - Complete Works (Disc 1).wav
Peak level 100.0 %
Range quality 100.0 %
Copy CRC CF88AAF1
Copy OK
No errors occurred
AccurateRip summary
Track 1 not present in database
Track 2 not present in database
Track 3 not present in database
Track 4 not present in database
Track 5 not present in database
Track 6 not present in database
Track 7 not present in database
Track 8 not present in database
Track 9 not present in database
Track 10 not present in database
Track 11 not present in database
Track 12 not present in database
Track 13 not present in database
None of the tracks are present in the AccurateRip database
End of status report

CD 2

Exact Audio Copy V1.0 beta 3 from 29. August 2011
EAC extraction logfile from 22. January 2014, 0:33
Tristan Keuris [1946-1996] / Complete Works (Disc 2)
Used drive : TSSTcorpCDDVDW SH-S223C Adapter: 2 ID: 1
Read mode : Secure
Utilize accurate stream : Yes
Defeat audio cache : Yes
Make use of C2 pointers : No
Read offset correction : 697
Overread into Lead-In and Lead-Out : No
Fill up missing offset samples with silence : Yes
Delete leading and trailing silent blocks : No
Null samples used in CRC calculations : Yes
Used interface : Native Win32 interface for Win NT & 2000
Used output format : User Defined Encoder
Selected bitrate : 896 kBit/s
Quality : High
Add ID3 tag : No
Command line compressor : C:\Program Files (x86)\Exact Audio Copy\FLAC\FLAC.EXE
Additional command line options : -V -0 -T "COMMENT=Ripped by Tapaz9" -T "artist=%artist%" -T "title=%title%" -T "album=%albumtitle%" -T "date=%year%" -T "tracknumber=%tracknr%" -T "genre=%genre%" %source%
TOC of the extracted CD
Track | Start | Length | Start sector | End sector
---------------------------------------------------------
1 | 0:00.00 | 12:14.38 | 0 | 55087
2 | 12:14.38 | 8:33.34 | 55088 | 93596
3 | 20:47.72 | 11:47.36 | 93597 | 146657
4 | 32:35.33 | 1:24.17 | 146658 | 152974
5 | 33:59.50 | 1:11.35 | 152975 | 158334
6 | 35:11.10 | 2:10.28 | 158335 | 168112
7 | 37:21.38 | 4:41.40 | 168113 | 189227
8 | 42:03.03 | 3:12.58 | 189228 | 203685
9 | 45:15.61 | 11:25.73 | 203686 | 255133
10 | 56:41.59 | 8:41.46 | 255134 | 294254
Range status and errors
Selected range
Filename F:\Musique\Keuris, Tristan\Keuris_CompleteWorks_CD2\Tristan Keuris [1946-1996] - Complete Works (Disc 2).wav
Peak level 99.9 %
Extraction speed 15.0 X
Range quality 100.0 %
Copy CRC 819CA3EE
Copy OK
No errors occurred
End of status report
==== Log checksum 2111CBD5C6282537B228F3D45B092CFF6244B458D8CA494D8C4E98F3DF88CD74 ====

CD 3

Exact Audio Copy V0.99 prebeta 4 from 23. January 2008
EAC extraction logfile from 19. March 2010, 1:12
Tristan Keuris [1946-1996] / Complete Works (Disc 3)
Used drive : HL-DT-STDVD-ROM GDR8163B Adapter: 1 ID: 1
Read mode : Secure
Utilize accurate stream : Yes
Defeat audio cache : Yes
Make use of C2 pointers : No
Read offset correction : 102
Overread into Lead-In and Lead-Out : No
Fill up missing offset samples with silence : Yes
Delete leading and trailing silent blocks : No
Null samples used in CRC calculations : No
Used interface : Native Win32 interface for Win NT & 2000
Used output format : User Defined Encoder
Selected bitrate : 768 kBit/s
Quality : High
Add ID3 tag : No
Command line compressor : D:\Archivos de programa\Exact Audio Copy\FLAC\FLAC.EXE
Additional command line options : -6 -V -T "ARTIST=%a" -T "TITLE=%t" -T "ALBUM=%g" -T "DATE=%y" -T "TRACKNUMBER=%n" -T "GENRE=%m" -T "COMMENT=%e" %s -o %d
TOC of the extracted CD
Track | Start | Length | Start sector | End sector
---------------------------------------------------------
1 | 0:00.00 | 7:45.16 | 0 | 34890
2 | 7:45.16 | 15:41.02 | 34891 | 105467
3 | 23:26.18 | 2:13.45 | 105468 | 115487
4 | 25:39.63 | 0:40.14 | 115488 | 118501
5 | 26:20.02 | 1:45.64 | 118502 | 126440
6 | 28:05.66 | 1:12.32 | 126441 | 131872
7 | 29:18.23 | 0:50.47 | 131873 | 135669
8 | 30:08.70 | 1:04.25 | 135670 | 140494
9 | 31:13.20 | 0:25.13 | 140495 | 142382
10 | 31:38.33 | 1:21.15 | 142383 | 148472
11 | 32:59.48 | 6:17.18 | 148473 | 176765
12 | 39:16.66 | 6:36.60 | 176766 | 206525
13 | 45:53.51 | 5:30.49 | 206526 | 231324
14 | 51:24.25 | 4:30.48 | 231325 | 251622
15 | 55:54.73 | 4:21.21 | 251623 | 271218
16 | 60:16.19 | 4:29.09 | 271219 | 291402
17 | 64:45.28 | 3:14.25 | 291403 | 305977
Range status and errors
Selected range
Filename D:\KEURIS\Tristan Keuris [1946-1996] - Complete Works (Disc 3).wav
Peak level 99.9 %
Range quality 100.0 %
Test CRC A219E40A
Copy CRC A219E40A
Copy OK
No errors occurred
AccurateRip summary
Track 1 not present in database
Track 2 not present in database
Track 3 not present in database
Track 4 not present in database
Track 5 not present in database
Track 6 not present in database
Track 7 not present in database
Track 8 not present in database
Track 9 not present in database
Track 10 not present in database
Track 11 not present in database
Track 12 not present in database
Track 13 not present in database
Track 14 not present in database
Track 15 not present in database
Track 16 not present in database
Track 17 not present in database
None of the tracks are present in the AccurateRip database
End of status report

CD 4

Exact Audio Copy V0.99 prebeta 4 from 23. January 2008
EAC extraction logfile from 21. March 2010, 4:07
Tristan Keuris [1946-1996] / Complete Works (Disc 4)
Used drive : HL-DT-STDVD-ROM GDR8163B Adapter: 1 ID: 1
Read mode : Secure
Utilize accurate stream : Yes
Defeat audio cache : Yes
Make use of C2 pointers : No
Read offset correction : 102
Overread into Lead-In and Lead-Out : No
Fill up missing offset samples with silence : Yes
Delete leading and trailing silent blocks : No
Null samples used in CRC calculations : No
Used interface : Native Win32 interface for Win NT & 2000
Used output format : User Defined Encoder
Selected bitrate : 768 kBit/s
Quality : High
Add ID3 tag : No
Command line compressor : D:\Archivos de programa\Exact Audio Copy\FLAC\FLAC.EXE
Additional command line options : -6 -V -T "ARTIST=%a" -T "TITLE=%t" -T "ALBUM=%g" -T "DATE=%y" -T "TRACKNUMBER=%n" -T "GENRE=%m" -T "COMMENT=%e" %s -o %d
TOC of the extracted CD
Track | Start | Length | Start sector | End sector
---------------------------------------------------------
1 | 0:00.00 | 8:41.52 | 0 | 39126
2 | 8:41.52 | 7:14.61 | 39127 | 71737
3 | 15:56.38 | 6:41.34 | 71738 | 101846
4 | 22:37.72 | 0:58.53 | 101847 | 106249
5 | 23:36.50 | 2:46.63 | 106250 | 118762
6 | 26:23.38 | 2:38.73 | 118763 | 130685
7 | 29:02.36 | 2:47.34 | 130686 | 143244
8 | 31:49.70 | 2:29.25 | 143245 | 154444
9 | 34:19.20 | 3:58.53 | 154445 | 172347
10 | 38:17.73 | 1:59.45 | 172348 | 181317
11 | 40:17.43 | 4:06.41 | 181318 | 199808
12 | 44:24.09 | 2:52.20 | 199809 | 212728
13 | 47:16.29 | 3:25.62 | 212729 | 228165
14 | 50:42.16 | 1:59.27 | 228166 | 237117
15 | 52:41.43 | 3:37.69 | 237118 | 253461
16 | 56:19.37 | 16:29.65 | 253462 | 327701
Range status and errors
Selected range
Filename D:\KEURIS\Tristan Keuris [1946-1996] - Complete Works (Disc 4).wav
Peak level 99.9 %
Range quality 99.9 %
Copy CRC 705EE78D
Copy OK
No errors occurred
AccurateRip summary
Track 1 not present in database
Track 2 not present in database
Track 3 not present in database
Track 4 not present in database
Track 5 not present in database
Track 6 not present in database
Track 7 not present in database
Track 8 not present in database
Track 9 not present in database
Track 10 not present in database
Track 11 not present in database
Track 12 not present in database
Track 13 not present in database
Track 14 not present in database
Track 15 not present in database
Track 16 not present in database
None of the tracks are present in the AccurateRip database
End of status report

CD 5

Exact Audio Copy V0.99 prebeta 4 from 23. January 2008
EAC extraction logfile from 19. March 2010, 2:07
Tristan Keuris [1946-1996] / Complete Works (Disc 5)
Used drive : HL-DT-STDVD-ROM GDR8163B Adapter: 1 ID: 1
Read mode : Secure
Utilize accurate stream : Yes
Defeat audio cache : Yes
Make use of C2 pointers : No
Read offset correction : 102
Overread into Lead-In and Lead-Out : No
Fill up missing offset samples with silence : Yes
Delete leading and trailing silent blocks : No
Null samples used in CRC calculations : No
Used interface : Native Win32 interface for Win NT & 2000
Used output format : User Defined Encoder
Selected bitrate : 768 kBit/s
Quality : High
Add ID3 tag : No
Command line compressor : D:\Archivos de programa\Exact Audio Copy\FLAC\FLAC.EXE
Additional command line options : -6 -V -T "ARTIST=%a" -T "TITLE=%t" -T "ALBUM=%g" -T "DATE=%y" -T "TRACKNUMBER=%n" -T "GENRE=%m" -T "COMMENT=%e" %s -o %d
TOC of the extracted CD
Track | Start | Length | Start sector | End sector
---------------------------------------------------------
1 | 0:00.00 | 9:25.01 | 0 | 42375
2 | 9:25.01 | 6:29.00 | 42376 | 71550
3 | 15:54.01 | 7:35.06 | 71551 | 105681
4 | 23:29.07 | 21:23.68 | 105682 | 201974
5 | 44:53.00 | 11:29.34 | 201975 | 253683
6 | 56:22.34 | 18:02.42 | 253684 | 334875
Range status and errors
Selected range
Filename D:\KEURIS\Tristan Keuris [1946-1996] - Complete Works (Disc 5).wav
Peak level 100.0 %
Range quality 100.0 %
Test CRC AC821CB2
Copy CRC AC821CB2
Copy OK
No errors occurred
AccurateRip summary
Track 1 not present in database
Track 2 not present in database
Track 3 not present in database
Track 4 not present in database
Track 5 not present in database
Track 6 not present in database
None of the tracks are present in the AccurateRip database
End of status report

CD 6

Exact Audio Copy V0.99 prebeta 4 from 23. January 2008
EAC extraction logfile from 19. March 2010, 2:20
Tristan Keuris [1946-1996] / Complete Works (Disc 6)
Used drive : HL-DT-STDVD-ROM GDR8163B Adapter: 1 ID: 1
Read mode : Secure
Utilize accurate stream : Yes
Defeat audio cache : Yes
Make use of C2 pointers : No
Read offset correction : 102
Overread into Lead-In and Lead-Out : No
Fill up missing offset samples with silence : Yes
Delete leading and trailing silent blocks : No
Null samples used in CRC calculations : No
Used interface : Native Win32 interface for Win NT & 2000
Used output format : User Defined Encoder
Selected bitrate : 768 kBit/s
Quality : High
Add ID3 tag : No
Command line compressor : D:\Archivos de programa\Exact Audio Copy\FLAC\FLAC.EXE
Additional command line options : -6 -V -T "ARTIST=%a" -T "TITLE=%t" -T "ALBUM=%g" -T "DATE=%y" -T "TRACKNUMBER=%n" -T "GENRE=%m" -T "COMMENT=%e" %s -o %d
TOC of the extracted CD
Track | Start | Length | Start sector | End sector
---------------------------------------------------------
1 | 0:00.00 | 21:44.60 | 0 | 97859
2 | 21:44.60 | 14:00.51 | 97860 | 160910
3 | 35:45.36 | 8:05.43 | 160911 | 197328
4 | 43:51.04 | 8:44.44 | 197329 | 236672
5 | 52:35.48 | 24:27.63 | 236673 | 346760
Range status and errors
Selected range
Filename D:\KEURIS\Tristan Keuris [1946-1996] - Complete Works (Disc 6).wav
Peak level 99.9 %
Range quality 100.0 %
Copy CRC 2A620C71
Copy OK
No errors occurred
AccurateRip summary
Track 1 not present in database
Track 2 not present in database
Track 3 not present in database
Track 4 not present in database
Track 5 not present in database
None of the tracks are present in the AccurateRip database
End of status report

CD 7

Exact Audio Copy V0.99 prebeta 4 from 23. January 2008
EAC extraction logfile from 19. March 2010, 2:38
Tristan Keuris [1946-1996] / Complete Works (Disc 7)
Used drive : HL-DT-STDVD-ROM GDR8163B Adapter: 1 ID: 1
Read mode : Secure
Utilize accurate stream : Yes
Defeat audio cache : Yes
Make use of C2 pointers : No
Read offset correction : 102
Overread into Lead-In and Lead-Out : No
Fill up missing offset samples with silence : Yes
Delete leading and trailing silent blocks : No
Null samples used in CRC calculations : No
Used interface : Native Win32 interface for Win NT & 2000
Used output format : User Defined Encoder
Selected bitrate : 768 kBit/s
Quality : High
Add ID3 tag : No
Command line compressor : D:\Archivos de programa\Exact Audio Copy\FLAC\FLAC.EXE
Additional command line options : -6 -V -T "ARTIST=%a" -T "TITLE=%t" -T "ALBUM=%g" -T "DATE=%y" -T "TRACKNUMBER=%n" -T "GENRE=%m" -T "COMMENT=%e" %s -o %d
TOC of the extracted CD
Track | Start | Length | Start sector | End sector
---------------------------------------------------------
1 | 0:00.00 | 3:02.47 | 0 | 13696
2 | 3:02.47 | 2:04.04 | 13697 | 23000
3 | 5:06.51 | 3:48.38 | 23001 | 40138
4 | 8:55.14 | 1:58.28 | 40139 | 49016
5 | 10:53.42 | 3:04.74 | 49017 | 62890
6 | 13:58.41 | 6:26.35 | 62891 | 91875
7 | 20:25.01 | 4:31.24 | 91876 | 112224
8 | 24:56.25 | 5:22.18 | 112225 | 136392
9 | 30:18.43 | 5:08.74 | 136393 | 159566
10 | 35:27.42 | 14:57.11 | 159567 | 226852
11 | 50:24.53 | 2:23.43 | 226853 | 237620
12 | 52:48.21 | 1:16.60 | 237621 | 243380
13 | 54:05.06 | 3:30.34 | 243381 | 259164
14 | 57:35.40 | 1:45.10 | 259165 | 267049
15 | 59:20.50 | 2:48.12 | 267050 | 279661
16 | 62:08.62 | 6:31.63 | 279662 | 309049
17 | 68:40.50 | 3:22.58 | 309050 | 324257
18 | 72:03.33 | 6:54.46 | 324258 | 355353
Range status and errors
Selected range
Filename D:\KEURIS\Tristan Keuris [1946-1996] - Complete Works (Disc 7).wav
Peak level 99.9 %
Range quality 99.9 %
Copy CRC 00132A94
Copy OK
No errors occurred
AccurateRip summary
Track 1 not present in database
Track 2 not present in database
Track 3 not present in database
Track 4 not present in database
Track 5 not present in database
Track 6 not present in database
Track 7 not present in database
Track 8 not present in database
Track 9 not present in database
Track 10 not present in database
Track 11 not present in database
Track 12 not present in database
Track 13 not present in database
Track 14 not present in database
Track 15 not present in database
Track 16 not present in database
Track 17 not present in database
Track 18 not present in database
None of the tracks are present in the AccurateRip database
End of status report

CD 8

Exact Audio Copy V0.99 prebeta 4 from 23. January 2008
EAC extraction logfile from 19. March 2010, 2:53
Tristan Keuris [1946-1996] / Complete Works (Disc 8)
Used drive : HL-DT-STDVD-ROM GDR8163B Adapter: 1 ID: 1
Read mode : Secure
Utilize accurate stream : Yes
Defeat audio cache : Yes
Make use of C2 pointers : No
Read offset correction : 102
Overread into Lead-In and Lead-Out : No
Fill up missing offset samples with silence : Yes
Delete leading and trailing silent blocks : No
Null samples used in CRC calculations : No
Used interface : Native Win32 interface for Win NT & 2000
Used output format : User Defined Encoder
Selected bitrate : 768 kBit/s
Quality : High
Add ID3 tag : No
Command line compressor : D:\Archivos de programa\Exact Audio Copy\FLAC\FLAC.EXE
Additional command line options : -6 -V -T "ARTIST=%a" -T "TITLE=%t" -T "ALBUM=%g" -T "DATE=%y" -T "TRACKNUMBER=%n" -T "GENRE=%m" -T "COMMENT=%e" %s -o %d
TOC of the extracted CD
Track | Start | Length | Start sector | End sector
---------------------------------------------------------
1 | 0:00.00 | 7:29.56 | 0 | 33730
2 | 7:29.56 | 5:53.33 | 33731 | 60238
3 | 13:23.14 | 3:19.34 | 60239 | 75197
4 | 16:42.48 | 8:07.67 | 75198 | 111789
5 | 24:50.40 | 11:51.34 | 111790 | 165148
6 | 36:41.74 | 5:44.45 | 165149 | 190993
7 | 42:26.44 | 5:57.03 | 190994 | 217771
8 | 48:23.47 | 8:26.63 | 217772 | 255784
9 | 56:50.35 | 14:20.29 | 255785 | 320313
Range status and errors
Selected range
Filename D:\KEURIS\Tristan Keuris [1946-1996] - Complete Works (Disc 8).wav
Peak level 99.9 %
Range quality 100.0 %
Copy CRC 92F2C1EC
Copy OK
No errors occurred
AccurateRip summary
Track 1 not present in database
Track 2 not present in database
Track 3 not present in database
Track 4 not present in database
Track 5 not present in database
Track 6 not present in database
Track 7 not present in database
Track 8 not present in database
Track 9 not present in database
None of the tracks are present in the AccurateRip database
End of status report

СD 9

Exact Audio Copy V0.99 prebeta 4 from 23. January 2008
EAC extraction logfile from 19. March 2010, 3:09
Tristan Keuris [1946-1996] / Complete Works (Disc 9)
Used drive : HL-DT-STDVD-ROM GDR8163B Adapter: 1 ID: 1
Read mode : Secure
Utilize accurate stream : Yes
Defeat audio cache : Yes
Make use of C2 pointers : No
Read offset correction : 102
Overread into Lead-In and Lead-Out : No
Fill up missing offset samples with silence : Yes
Delete leading and trailing silent blocks : No
Null samples used in CRC calculations : No
Used interface : Native Win32 interface for Win NT & 2000
Used output format : User Defined Encoder
Selected bitrate : 768 kBit/s
Quality : High
Add ID3 tag : No
Command line compressor : D:\Archivos de programa\Exact Audio Copy\FLAC\FLAC.EXE
Additional command line options : -6 -V -T "ARTIST=%a" -T "TITLE=%t" -T "ALBUM=%g" -T "DATE=%y" -T "TRACKNUMBER=%n" -T "GENRE=%m" -T "COMMENT=%e" %s -o %d
TOC of the extracted CD
Track | Start | Length | Start sector | End sector
---------------------------------------------------------
1 | 0:00.00 | 9:34.17 | 0 | 43066
2 | 9:34.17 | 8:50.50 | 43067 | 82866
3 | 18:24.67 | 4:18.53 | 82867 | 102269
4 | 22:43.45 | 6:20.29 | 102270 | 130798
5 | 29:03.74 | 4:08.55 | 130799 | 149453
6 | 33:12.54 | 4:15.20 | 149454 | 168598
7 | 37:27.74 | 6:13.52 | 168599 | 196625
8 | 43:41.51 | 2:34.30 | 196626 | 208205
9 | 46:16.06 | 2:40.37 | 208206 | 220242
10 | 48:56.43 | 12:59.63 | 220243 | 278730
Range status and errors
Selected range
Filename D:\KEURIS\Tristan Keuris [1946-1996] - Complete Works (Disc 9).wav
Peak level 99.9 %
Range quality 99.9 %
Copy CRC 4CC8CF04
Copy OK
No errors occurred
AccurateRip summary
Track 1 not present in database
Track 2 not present in database
Track 3 not present in database
Track 4 not present in database
Track 5 not present in database
Track 6 not present in database
Track 7 not present in database
Track 8 not present in database
Track 9 not present in database
Track 10 not present in database
None of the tracks are present in the AccurateRip database
End of status report

CD 10

Exact Audio Copy V0.99 prebeta 4 from 23. January 2008
EAC extraction logfile from 19. March 2010, 5:52
Tristan Keuris [1946-1996] / Complete Works (Disc 10)
Used drive : HL-DT-STDVD-ROM GDR8163B Adapter: 1 ID: 1
Read mode : Secure
Utilize accurate stream : Yes
Defeat audio cache : Yes
Make use of C2 pointers : No
Read offset correction : 102
Overread into Lead-In and Lead-Out : No
Fill up missing offset samples with silence : Yes
Delete leading and trailing silent blocks : No
Null samples used in CRC calculations : No
Used interface : Native Win32 interface for Win NT & 2000
Used output format : User Defined Encoder
Selected bitrate : 768 kBit/s
Quality : High
Add ID3 tag : No
Command line compressor : D:\Archivos de programa\Exact Audio Copy\FLAC\FLAC.EXE
Additional command line options : -6 -V -T "ARTIST=%a" -T "TITLE=%t" -T "ALBUM=%g" -T "DATE=%y" -T "TRACKNUMBER=%n" -T "GENRE=%m" -T "COMMENT=%e" %s -o %d
TOC of the extracted CD
Track | Start | Length | Start sector | End sector
---------------------------------------------------------
1 | 0:00.00 | 3:56.66 | 0 | 17765
2 | 3:56.66 | 4:02.36 | 17766 | 35951
3 | 7:59.27 | 6:27.30 | 35952 | 65006
4 | 14:26.57 | 7:19.09 | 65007 | 97940
5 | 21:45.66 | 2:32.04 | 97941 | 109344
6 | 24:17.70 | 3:23.53 | 109345 | 124622
7 | 27:41.48 | 2:02.28 | 124623 | 133800
8 | 29:44.01 | 7:42.71 | 133801 | 168521
9 | 37:26.72 | 8:43.13 | 168522 | 207759
10 | 46:10.10 | 5:53.09 | 207760 | 234243
11 | 52:03.19 | 8:22.29 | 234244 | 271922
12 | 60:25.48 | 7:56.53 | 271923 | 307675
13 | 68:22.26 | 3:25.07 | 307676 | 323057
14 | 71:47.33 | 6:17.73 | 323058 | 351405
Range status and errors
Selected range
Filename D:\KEURIS\Tristan Keuris [1946-1996] - Complete Works (Disc 10).wav
Peak level 99.9 %
Range quality 99.9 %
Copy CRC D4C4E951
Copy OK
No errors occurred
AccurateRip summary
Track 1 not present in database
Track 2 not present in database
Track 3 not present in database
Track 4 not present in database
Track 5 not present in database
Track 6 not present in database
Track 7 not present in database
Track 8 not present in database
Track 9 not present in database
Track 10 not present in database
Track 11 not present in database
Track 12 not present in database
Track 13 not present in database
Track 14 not present in database
None of the tracks are present in the AccurateRip database
End of status report

CD 11

Exact Audio Copy V0.99 prebeta 4 from 23. January 2008
EAC extraction logfile from 19. March 2010, 6:02
Tristan Keuris [1946-1996] / Complete Works (Disc 11)
Used drive : HL-DT-STDVD-ROM GDR8163B Adapter: 1 ID: 1
Read mode : Secure
Utilize accurate stream : Yes
Defeat audio cache : Yes
Make use of C2 pointers : No
Read offset correction : 102
Overread into Lead-In and Lead-Out : No
Fill up missing offset samples with silence : Yes
Delete leading and trailing silent blocks : No
Null samples used in CRC calculations : No
Used interface : Native Win32 interface for Win NT & 2000
Used output format : User Defined Encoder
Selected bitrate : 768 kBit/s
Quality : High
Add ID3 tag : No
Command line compressor : D:\Archivos de programa\Exact Audio Copy\FLAC\FLAC.EXE
Additional command line options : -6 -V -T "ARTIST=%a" -T "TITLE=%t" -T "ALBUM=%g" -T "DATE=%y" -T "TRACKNUMBER=%n" -T "GENRE=%m" -T "COMMENT=%e" %s -o %d
TOC of the extracted CD
Track | Start | Length | Start sector | End sector
---------------------------------------------------------
1 | 0:00.00 | 2:51.49 | 0 | 12873
2 | 2:51.49 | 2:41.29 | 12874 | 24977
3 | 5:33.03 | 2:24.63 | 24978 | 35840
4 | 7:57.66 | 2:21.44 | 35841 | 46459
5 | 10:19.35 | 3:51.48 | 46460 | 63832
6 | 14:11.08 | 13:21.38 | 63833 | 123945
7 | 27:32.46 | 12:02.29 | 123946 | 178124
8 | 39:35.00 | 10:00.00 | 178125 | 223124
9 | 49:35.00 | 3:39.00 | 223125 | 239549
10 | 53:14.00 | 0:50.33 | 239550 | 243332
11 | 54:04.33 | 3:15.56 | 243333 | 258013
12 | 57:20.14 | 2:24.28 | 258014 | 268841
13 | 59:44.42 | 2:23.04 | 268842 | 279570
14 | 62:07.46 | 2:15.55 | 279571 | 289750
Range status and errors
Selected range
Filename D:\KEURIS\Tristan Keuris [1946-1996] - Complete Works (Disc 11).wav
Peak level 99.9 %
Range quality 100.0 %
Copy CRC A0654369
Copy OK
No errors occurred
AccurateRip summary
Track 1 not present in database
Track 2 not present in database
Track 3 not present in database
Track 4 not present in database
Track 5 not present in database
Track 6 not present in database
Track 7 not present in database
Track 8 not present in database
Track 9 not present in database
Track 10 not present in database
Track 11 not present in database
Track 12 not present in database
Track 13 not present in database
Track 14 not present in database
None of the tracks are present in the AccurateRip database
End of status report
Доп. информация: Раздача завершена 20.06.
ПРОСЬБА К СКАЧАВШИМ, ОСТАВАЙТЕСЬ НА РАЗДАЧЕ
[teatrix.ru].t18520.torrent 
Торрент: Зарегистрирован [ 2016-03-17 00:34 ] · BCC2D9C592A3C293E84DE99584E900301671DCF9

Скачать .torrent

Скачать

23 KB

Статус: проверено
Скачан: 0 раз
Размер: 3.37 GB
terms.php



Быстрый ответ

Имя:

      
Для отправки сообщений необходимо включить JavaScript
Показать сообщения:    

Текущее время: 10-Дек 08:04

Часовой пояс: UTC + 3


Вы можете начинать темы
Вы можете отвечать на сообщения
Вы не можете редактировать свои сообщения
Вы не можете удалять свои сообщения
Вы не можете голосовать в опросах
Вы не можете прикреплять файлы к сообщениям
Вы можете скачивать файлы