(Classical) [24/96] J. S. Bach - Organ Horales BWV 651-656/И. С. Бах - Хоралы для органа BWV 651-656 (E. Lisitsina/Е. Лисицина) - 1983, FLAC (image+.cue)


Статистика раздачи [Обновить пиров]
Размер:  735 MB   |    Зарегистрирован:  8 месяцев 19 дней   |    Скачан:  0 раз

Полного источника не было: Никогда

 
   
 
 
 

[Цитировать]

И. С. Бах - Хоралы для органа
Евгения Лисицина (Большой Орган Рижского Домского собора)

Жанр: Classical
Носитель: LP
Год выпуска: 1983
Лейбл: Мелодия (С10 19631-32 006)
Страна-производитель: СССР
Аудио кодек: FLAC
Тип рипа: image+.cue
Формат записи: 24/192
Формат раздачи: 24/96
Продолжительность: 00:39:19
Тэги в .cue: прописаны
Источник оцифровки: автором раздачи
Код класса состояния винила: VG
Устройство воспроизведения: Электроника ЭП 017С
Головка звукоснимателя: ГЗМ – 028 (Корвет)
Предварительный усилитель: AMX - 100 (LTO®)
АЦП: Juli@
Программа-оцифровщик: AdobeAudition CS6 5.0.2.
Обработка: удаление артефактов

Трэклист:


J. S. Bach (1685 - 1750)
01. Fantasia Super: Komm, Heiliger Geist, Herre Got BWV 651
02. Komm, Heiliger Geist, Herre Gott (alio modo) BWV 652
03. An Wasserflussen Babylon, BWV 653
04. Schmucke Dich, O Liebe Seele, BWV 654
05. Trio Super: Herr Jesu Christ, Dich Zu Uns Wend, BWV 655
06. O Lamm Gottes, Unschuldig, BWV 656
Евгения Лисицина - Большой Орган Рижского Домского собора
Запись 1981 года.

Конверт, наклейки:


Уровень записи, спектр, АЧХ:

.cue txt:

REM GENRE Classical
REM DATE 1983
REM COMENT Vinyl, LP, Album, Мелодия (С10 19631-32 006), USSR
TITLE Хоралы для органа (BWV 651-656)
PERFORMER Евгения Лисицина
FILE "01. Organ Chorales - Side 1.flac" WAVE
TRACK 01 AUDIO
TITLE "01. Fantasia Super: Komm, Heiliger Geist, Herre Got BWV 651"
INDEX 01 00:00:00
TRACK 02 AUDIO
TITLE "02. Komm, Heiliger Geist, Herre Gott (alio modo) BWV 652"
INDEX 01 05:22:30
TRACK 03 AUDIO
TITLE "03. An Wasserflussen Babylon, BWV 653"
INDEX 01 15:12:36
FILE "02. Organ Chorales - Side 2.flac" WAVE
TRACK 04 AUDIO
TITLE "04. Schmucke Dich, O Liebe Seele, BWV 654"
INDEX 01 00:00:00
TRACK 05 AUDIO
TITLE "05. Trio Super: Herr Jesu Christ, Dich Zu Uns Wend, BWV 655"
INDEX 01 07:56:53
TRACK 06 AUDIO
TITLE "06. O Lamm Gottes, Unschuldig, BWV 656"
INDEX 01 11:34:20
[teatrix.ru].t18546.torrent 
Торрент: Зарегистрирован [ 2016-03-17 00:33 ] · E61A25940B3BB51F3CCF76D4E83BF66694CBCD19

Скачать .torrent

Скачать

15 KB

Статус: проверено
Скачан: 0 раз
Размер: 735 MB
terms.php



Быстрый ответ

Имя:

      
Для отправки сообщений необходимо включить JavaScript
Показать сообщения:    

Текущее время: 05-Дек 15:31

Часовой пояс: UTC + 3


Вы можете начинать темы
Вы можете отвечать на сообщения
Вы не можете редактировать свои сообщения
Вы не можете удалять свои сообщения
Вы не можете голосовать в опросах
Вы не можете прикреплять файлы к сообщениям
Вы можете скачивать файлы