(Classical) [LP] [24/96] Johann Sebastian Bach - Три сонаты для флейты и клавесина BWV 1033-1035 (А. Корнеев и А. Бахчиев) - 1979, FLAC (image+.cue)


Статистика раздачи [Обновить пиров]
Размер:  835 MB   |    Зарегистрирован:  8 месяцев 23 дня   |    Скачан:  0 раз

Полного источника не было: Никогда

 
   
 
 
 

[Цитировать]

А. Корнеев (флейта) и А. Бахчиев (клавесин)
J. S. Bach - Три сонаты для флейты и клавесина BWV 1033-1035

Жанр: Classical
Носитель: LP
Год выпуска: 1979
Лейбл: Мелодия (С10 - 06137-38)
Страна-производитель: СССР
Аудио кодек: FLAC
Тип рипа: image+.cue
Формат записи: 24/192
Формат раздачи: 24/96
Продолжительность: 00:43:26
Тэги в .cue: прописаны
Источник оцифровки: автором раздачи
Код класса состояния винила: VG
Устройство воспроизведения: Электроника ЭП 017С
Головка звукоснимателя: ГЗМ – 028 (Корвет)
Предварительный усилитель: AMX - 100 (LTO®)
АЦП: Juli@
Программа-оцифровщик: iZotope RX 3
Обработка: удаление артефактов

Трэклист:

J. S. Bach01. Соната № 4 для флейты и клавесина до мажор, BWV 1033
a) Andante. Presto
b) Allegro
c) Adagio
d) Menuett I. Menuett II

02. Соната № 5 для флейты и клавесина ми минор, BWV 1034
a) Adagio ma non tanto
b) Allegro
c) Andante
d) Allegro

03. Соната № 6 для флейты и клавесина ми мажор, BWV 1035
a) Adagio ma non tanto
b) Allegro
c) Siciliano
d) Allegro assai
Александр Корнеев (флейта) и Александр Бахчиев (клавесин)

Конверт, наклейки:


Уровень записи, спектр, АЧХ:

.cue txt:

REM GENRE Classical
REM DATE 1979
REM COMENT Vinyl, LP, Album, Мелодия (С10 - 06137-8), USSR
TITLE И. С. Бах - Три сонаты для флейты и клавесина BWV 1033-1035
PERFORMER Александр Корнеев (флейта) и Александр Бахчиев (клавесин)
FILE "01. И. С. Бах - Три сонаты для флейты и клавесина BWV 1033-1035.flac" WAVE
TRACK 01 AUDIO
TITLE "01. Соната № 4 для флейты и клавесина до мажор, BWV 1033"
INDEX 01 00:00:00
TRACK 02 AUDIO
TITLE "02. Соната № 5 для флейты и клавесина ми минор, BWV 1034"
INDEX 01 11:07:02
TRACK 03 AUDIO
TITLE "03. Соната № 6 для флейты и клавесина ми мажор, BWV 1035"
INDEX 01 28:33:05
[teatrix.ru].t18570.torrent 
Торрент: Зарегистрирован [ 2016-03-17 00:33 ] · 506EC8899CC25B8DDADAAE4CBC2C10B76E778A8B

Скачать .torrent

Скачать

17 KB

Статус: проверено
Скачан: 0 раз
Размер: 835 MB
terms.php



Быстрый ответ

Имя:

      
Для отправки сообщений необходимо включить JavaScript
Показать сообщения:    

Текущее время: 09-Дек 16:31

Часовой пояс: UTC + 3


Вы можете начинать темы
Вы можете отвечать на сообщения
Вы не можете редактировать свои сообщения
Вы не можете удалять свои сообщения
Вы не можете голосовать в опросах
Вы не можете прикреплять файлы к сообщениям
Вы можете скачивать файлы