(Classical) Franz Liszt - Sonate pour orgue; Missa Choralis - Benjamin Righetti; Academie vocale de Suisse romande, Renaud Bouvier & Dominique Tille - 2011, FLAC (image+.cue) lossless


Статистика раздачи [Обновить пиров]
Размер:  243 MB   |    Зарегистрирован:  8 месяцев 22 дня   |    Скачан:  0 раз

Полного источника не было: Никогда

 
   
 
 
 

[Цитировать]

Franz Liszt - Sonate pour orgue; Missa Choralis - Benjamin Righetti; Académie vocale de Suisse romande, Renaud Bouvier & Dominique Tille
Жанр: Classical
Страна-производитель диска: France
Год издания диска: 2011
Издатель (лейбл): K617
Номер по каталогу: K617229
Дата записи: 2011
Аудиокодек: FLAC
Тип рипа: image+.cue
Битрейт аудио: lossless
Продолжительность: 62:10
Источник: собственный рип
Наличие сканов в содержимом раздачи: да
Треклист:
Franz Liszt
[1] Grande sonate pour le pianoforte
(transcrite pour l’orgue par Benjamin Righetti)
[2]-[7] Missa Choralis pour choeur et orgue
Исполнители:
Benjamin Righetti organ
Académie vocale de Suisse romande
Direction artistique: Renaud Bouvier & Dominique Tille

Лог создания рипа

Exact Audio Copy V1.0 beta 3 from 29. August 2011
EAC extraction logfile from 29. April 2014, 22:04
Benjamin Righetti / Liszt - Sonate pour orgue; Missa Choralis
Used drive : HL-DT-STDVDRAM GSA-4083N Adapter: 1 ID: 0
Read mode : Secure
Utilize accurate stream : Yes
Defeat audio cache : Yes
Make use of C2 pointers : No
Read offset correction : 667
Overread into Lead-In and Lead-Out : No
Fill up missing offset samples with silence : Yes
Delete leading and trailing silent blocks : No
Null samples used in CRC calculations : Yes
Used interface : Native Win32 interface for Win NT & 2000
Used output format : User Defined Encoder
Selected bitrate : 896 kBit/s
Quality : High
Add ID3 tag : No
Command line compressor : C:\Program Files\Exact Audio Copy\Flac\flac.exe
Additional command line options : -V -8 %source%
TOC of the extracted CD
Track | Start | Length | Start sector | End sector
---------------------------------------------------------
1 | 0:00.00 | 33:10.69 | 0 | 149318
2 | 33:10.69 | 5:41.68 | 149319 | 174961
3 | 38:52.62 | 4:17.22 | 174962 | 194258
4 | 43:10.09 | 6:39.58 | 194259 | 224241
5 | 49:49.67 | 1:49.15 | 224242 | 232431
6 | 51:39.07 | 4:53.62 | 232432 | 254468
7 | 56:32.69 | 5:41.50 | 254469 | 280093
Range status and errors
Selected range
Filename J:\New Music\K617229 - Liszt - Sonate pour orgue; Missa Choralis (Benjamin Righetti, Academie vocale de Suisse romande)\Liszt - Sonate pour orgue; Missa Choralis.wav
Peak level 100.0 %
Extraction speed 2.7 X
Range quality 100.0 %
Test CRC B4A057AA
Copy CRC B4A057AA
Copy OK
No errors occurred
AccurateRip summary
Track 1 accurately ripped (confidence 1) [34104AC2] (AR v2)
Track 2 accurately ripped (confidence 1) [D81CBCF3] (AR v2)
Track 3 accurately ripped (confidence 1) [D5406723] (AR v2)
Track 4 accurately ripped (confidence 1) [8311CB11] (AR v2)
Track 5 accurately ripped (confidence 1) [63D2E785] (AR v2)
Track 6 accurately ripped (confidence 1) [0E4944D2] (AR v2)
Track 7 accurately ripped (confidence 1) [ADF1E5B8] (AR v2)
All tracks accurately ripped
End of status report
==== Log checksum D789E99502213924EF67F62AAF3E7EA3EFFA888184F5ABEB681C945966387D96 ====
[teatrix.ru].t18571.torrent 
Торрент: Зарегистрирован [ 2016-03-17 00:33 ] · 7FE4A821E41519CFCA77B11BB068293F279F27BD

Скачать .torrent

Скачать

39 KB

Статус: проверено
Скачан: 0 раз
Размер: 243 MB
terms.php



Быстрый ответ

Имя:

      
Для отправки сообщений необходимо включить JavaScript
Показать сообщения:    

Текущее время: 08-Дек 19:12

Часовой пояс: UTC + 3


Вы можете начинать темы
Вы можете отвечать на сообщения
Вы не можете редактировать свои сообщения
Вы не можете удалять свои сообщения
Вы не можете голосовать в опросах
Вы не можете прикреплять файлы к сообщениям
Вы можете скачивать файлы