(Classical) Прокофьев - Симфония №2, Симфония-концерт для виолончели с оркестром / Prokofiev - Symphony No. 2 Op. 40, Symphony-Concerto Op. 125 for cello and orchestra (А.Ивашкин, В.Полянский / Ivashkin, Polyansky) - 2002, FLAC (image+.cue) lossless


Статистика раздачи [Обновить пиров]
Размер:  342 MB   |    Зарегистрирован:  8 месяцев 23 дня   |    Скачан:  0 раз

Полного источника не было: Никогда

 
   
 
 
 

[Цитировать]

Сергей Прокофьев - Симфония №2 Op. 40, Симфония-концерт для виолончели с оркестром Op. 125
Sergey Prokofiev - Symphony No. 2 Op. 40, Symphony-Concerto Op. 125 for cello and orchestra
Александр Ивашкин, РГСО, Валерий Полянский / Alexander Ivashkin, Russian State Symphony Orchestra, Valeri Polyansky

Жанр: Classical
Страна-производитель диска: EU
Год издания диска: 2002
Издатель (лейбл): Chandos
Номер по каталогу: CHAN 9989
Дата записи: 2000-2001
Аудиокодек: FLAC
Тип рипа: image+.cue
Битрейт аудио: lossless
Продолжительность: 79'38
Источник: собственный рип
Наличие сканов в содержимом раздачи: да
Треклист:
Сергей Прокофьев / Sergey Prokofiev (1891-1953)
Symphony No. 2, Op. 40 38:49
in D minor - in d-Moll - en ré mineur
1 I Allegro ben articolato 12:00
2 II Theme with variations 26:47
Symphony-Concerto, Op. 125 for cello and orchestra 40:42
in E minor - in e-Moll - en mi mineur
3 I Andante 11:20
4 II Allegro giusto 17:55
5 III Andante con moto 11:24
Исполнители:
Александр Ивашкин, виолончель (3-5)
Государственный симфонический оркестр России
Дирижер - Валерий Полянский

Лог создания рипа

Exact Audio Copy V1.0 beta 3 from 29. August 2011
Отчёт EAC об извлечении, выполненном 22. мая 2014, 1:04
Alexander Ivashkin, Russian State Symphony Orchestra, Valeri Polyansky / Symphony-Concerto and Symphony No.2
Дисковод: HL-DT-STDVDRAM GU71N Adapter: 2 ID: 0
Режим чтения : Достоверность
Использование точного потока : Да
Отключение кэша аудио : Да
Использование указателей C2 : Нет
Коррекция смещения при чтении : 6
Способность читать области Lead-in и Lead-out : Нет
Заполнение пропущенных сэмплов тишиной : Да
Удаление блоков с тишиной в начале и конце : Нет
При вычислениях CRC использовались нулевые сэмплы : Да
Интерфейс : Встроенный Win32-интерфейс для Win NT/2000
Выходной формат : Пользовательский кодировщик
Выбранный битрейт : 1024 kBit/s
Качество : Высокий
Добавление ID3-тега : Нет
Утилита сжатия : C:\Program Files (x86)\Exact Audio Copy\Flac\flac.exe
Дополнительные параметры : -8 -V -T "ALBUMARTIST=%albumartist%" -T "ALBUM=%albumtitle%" -T "DATE=%year%" -T "TRACKTOTAL=%numtracks%" -T "GENRE=%genre%" -T "COMMENT=%comment%" -T "PERFORMER=%albuminterpret%" -T "COMPOSER=%composer%" %source% -o %dest%
TOC извлечённого CD
Трек | Старт | Длительность | Начальный сектор | Конечный сектор
---------------------------------------------------------------------
1 | 0:00.00 | 12:02.63 | 0 | 54212
2 | 12:02.63 | 26:52.10 | 54213 | 175122
3 | 38:54.73 | 11:22.05 | 175123 | 226277
4 | 50:17.03 | 17:55.55 | 226278 | 306957
5 | 68:12.58 | 11:26.62 | 306958 | 358469
Характеристики диапазона извлечения и сообщения об ошибках
Выбранный диапазон
Имя файла H:\Rips\Prokofiev - Symphony No. 2, Symphony-Concerto Op. 125 - Ivashkin, Polyansky CHAN 9989\Symphony-Concerto and Symphony No.2.wav
Пиковый уровень 96.4 %
Скорость извлечения 2.3 X
Качество диапазона 100.0 %
CRC теста 7FA301D2
CRC копии 7FA301D2
Копирование... OK
Ошибок не произошло
AccurateRip: сводка
Трек 1 отсутствует в базе данных
Трек 2 отсутствует в базе данных
Трек 3 отсутствует в базе данных
Трек 4 отсутствует в базе данных
Трек 5 отсутствует в базе данных
Ни одного трека нет в базе AccurateRip
Конец отчёта
==== Контрольная сумма отчёта 8F22E0FA6437FF0D1675BF117872FB0964207D7D7A479A8B9398DC6C1355DCEE ====

Содержание индексной карты (.CUE)

REM GENRE Symphonic
REM DATE 2002
REM DISCID 3B12AB05
REM COMMENT "ExactAudioCopy v1.0b3"
PERFORMER "Alexander Ivashkin, Russian State Symphony Orchestra, Valeri Polyansky"
TITLE "Symphony-Concerto and Symphony No.2"
FILE "Symphony-Concerto and Symphony No.2.flac" WAVE
TRACK 01 AUDIO
TITLE "Symphony No. 2, Op. 40 in D minor: Allegro ben articolato"
PERFORMER "Alexander Ivashkin, Russian State Symphony Orchestra, Valeri Polyansky"
INDEX 01 00:00:00
TRACK 02 AUDIO
TITLE "Symphony No. 2, Op. 40 in D minor: Theme with variations"
PERFORMER "Alexander Ivashkin, Russian State Symphony Orchestra, Valeri Polyansky"
INDEX 00 12:01:30
INDEX 01 12:02:63
TRACK 03 AUDIO
TITLE "Symphony-Concerto, Op. 125 in E minor - Andante"
PERFORMER "Alexander Ivashkin, Russian State Symphony Orchestra, Valeri Polyansky"
INDEX 00 38:50:55
INDEX 01 38:54:73
TRACK 04 AUDIO
TITLE "Symphony-Concerto, Op. 125 in E minor - Allegro guisto"
PERFORMER "Alexander Ivashkin, Russian State Symphony Orchestra, Valeri Polyansky"
INDEX 00 50:15:70
INDEX 01 50:17:03
TRACK 05 AUDIO
TITLE "Symphony-Concerto, Op. 125 in E minor - Andante con moto"
PERFORMER "Alexander Ivashkin, Russian State Symphony Orchestra, Valeri Polyansky"
INDEX 01 68:12:58
[teatrix.ru].t18573.torrent 
Торрент: Зарегистрирован [ 2016-03-17 00:33 ] · 87076BA0FE805358892F631E249543EC1160A2DB

Скачать .torrent

Скачать

54 KB

Статус: проверено
Скачан: 0 раз
Размер: 342 MB
terms.php



Быстрый ответ

Имя:

      
Для отправки сообщений необходимо включить JavaScript
Показать сообщения:    

Текущее время: 10-Дек 00:20

Часовой пояс: UTC + 3


Вы можете начинать темы
Вы можете отвечать на сообщения
Вы не можете редактировать свои сообщения
Вы не можете удалять свои сообщения
Вы не можете голосовать в опросах
Вы не можете прикреплять файлы к сообщениям
Вы можете скачивать файлы