(Classical/Organ) [LP] [24/96] J. S. Bach/И. С. Бах - Chorale Preludes, Pastorale, Partite Diverse Sopra "Christ, Der Du Bist Der Helle Tag" (Harry Grodberg/Гарри Гродберг) - 1983, FLAC (image+.cue)


Статистика раздачи [Обновить пиров]
Размер:  852 MB   |    Зарегистрирован:  10 месяцев 4 дня   |    Скачан:  1 раз

Полного источника не было: 2 месяца 9 дней

 
   
 
 
 

[Цитировать]

Гарри Гродберг - J. S. Bach
Жанр: Classical
Носитель: LP
Год выпуска: 1984
Лейбл: МЕлодия (С10 20125-26 004)
Страна-производитель: СССР
Аудио кодек: FLAC
Тип рипа: image+.cue
Формат записи: 24/192
Формат раздачи: 24/96
Продолжительность: 00:44:38
Тэги: в .cue прописаны
Источник оцифровки: автором раздачи
Код класса состояния винила: VG
Устройство воспроизведения: Электроника ЭП 017С
Головка звукоснимателя: ГЗМ – 028 (Корвет)
Предварительный усилитель: AMX - 100 (LTO®)
АЦП: Juli@
Программа-оцифровщик: iZotope RX 3
Обработка: удаление артефактов

Трэклист:


J. S. Bach
01. Chorale Preludes
''Vom Himmel hoch, da komm' ich her'' in C Major, BWV 700
''Christ lag in Todesbanden'' in A minor - D minor, BWV 695
''Erbarm' dich mein, o Herre Gott'' in F sharp minor, BWV 721
''Wo soll ich fliehen hin'' in G minor, BWV 694
''Gottes Sohn ist kommen'' in F major, BWV 703
''In dulci jubilo'' in A major, BWV 729

02. Pastoral in F major, BWV 590 (in four movements)
03. Partitas on a theme of the Chorale ''Christ, der du bist der helle Tag''in F minor, BWV 766"
Гарри Гродберг - орган.
Запись 1983 года.

Конверт, наклейки:


Уровень записи, спектр, АЧХ:

.cue txt:

REM GENRE Classical
REM DATE 1984
REM COMENT VINYL, LP, Album, Мелодия (С10 20125-26 004), USSR
TITLE Chorale Preludes
PERFORMER Harry Grodberg
FILE "01. Harry Grodberg - Side 1.flac" WAVE
TRACK 01 AUDIO
TITLE "01. ''Vom Himmel hoch, da komm' ich her'' in C Major, BWV 700 (Chorale Preludes)"
INDEX 01 00:00:00
TRACK 02 AUDIO
TITLE "02. ''Christ lag in Todesbanden'' in A minor - D minor, BWV 695 (Chorale Preludes)"
INDEX 01 03:51:29
TRACK 03 AUDIO
TITLE "03. ''Erbarm' dich mein, o Herre Gott'' in F sharp minor, BWV 721 (Chorale Preludes)"
INDEX 01 07:21:16
TRACK 04 AUDIO
TITLE "04. ''Wo soll ich fliehen hin'' in G minor, BWV 694 (Chorale Preludes)"
INDEX 01 13:17:64
TRACK 05 AUDIO
TITLE "05. Fughetta ''Gottes Sohn ist kommen'' in F major, BWV 703 (Chorale Preludes)"
INDEX 01 16:49:70
TRACK 06 AUDIO
TITLE "06. ''In dulci jubilo'' in A major, BWV 729 (Chorale Preludes)"
INDEX 01 17:58:11
FILE "02. Harry Grodberg - Side 2.flac" WAVE
TRACK 07 AUDIO
TITLE "07. Pastoral in F major, BWV 590 (in four movements)"
INDEX 01 00:00:00
TRACK 08 AUDIO
TITLE "08. Partitas on a theme of the Chorale ''Christ, der du bist der helle Tag''in F minor, BWV 766"
INDEX 01 12:08:07
[teatrix.ru].t18589.torrent 
Торрент: Зарегистрирован [ 2016-03-17 00:33 ] · C279F735FAA8D653FE2454E4781A145E92DE2295

Скачать .torrent

Скачать

17 KB

Статус: проверено
Скачан: 1 раз
Размер: 852 MB
terms.php



Быстрый ответ

Имя:

      
Для отправки сообщений необходимо включить JavaScript
Показать сообщения:    

Текущее время: 21-Янв 11:38

Часовой пояс: UTC + 3


Вы можете начинать темы
Вы можете отвечать на сообщения
Вы не можете редактировать свои сообщения
Вы не можете удалять свои сообщения
Вы не можете голосовать в опросах
Вы не можете прикреплять файлы к сообщениям
Вы можете скачивать файлы