(Classical) Гуммель – Месса Es-dur, Alma virgo, Quod in orbe / Hummel – Mass in E flat etc. (Halgrimson, McAdoo, Wildhaber, Mikulas; Haselbock) - 1996, FLAC (image+.cue) lossless


Статистика раздачи [Обновить пиров]
Размер:  270 MB   |    Зарегистрирован:  8 месяцев 19 дней   |    Скачан:  0 раз

Полного источника не было: Никогда

 
   
 
 
 

[Цитировать]

Гуммель – Месса Es-dur, Alma virgo, Quod in orbe / Hummel – Mass in E flat etc. (Halgrimson, McAdoo, Wildhaber, Mikulás; Haselböck)
Жанр: Classical
Страна-производитель диска: Австрия
Год издания диска: 1996
Издатель (лейбл): KOCH International GmbH (Koch Schwann)
Номер по каталогу: 3-1779-2
Дата записи: ноябрь 1994 г., Брно.
Аудиокодек: FLAC
Тип рипа: image+.cue
Битрейт аудио: lossless
Продолжительность: 00:56:24
Источник: odeonmusic
Наличие сканов в содержимом раздачи: да
Треклист:
Иоганн Непомук Гуммель (1778 — 1837).
Месса Es-dur для солистов, хора и оркестра, op. 80 (1804).
01. I. Kyrie [05:22].
02. II. Gloria [09:47].
03. III. Credo [13:43].
04. IV. Sanctus [02:04].
05. V. Benedictus [06:51].
06. VI. Agnus Dei [07:36].
07. Quod in orbe, градуал F-dur для хора с оркестром, op. 88 (1806?, до 1811) [04:10].
Alma virgo, офферторий F-dur для сопрано, духовых, хора и оркестра, op. 89a (?), WoO 21, S. 66 (1805).
08. Larghetto. — Allegro moderato [06:45].
Исполнители:
Amanda Halgrimson (сопрано),
Susan McAdoo (альт),
Helmut Wildhaber (тенор),
Petr Mikulás (бас).
Jan Engel (кларнет).
Czech Philharmonic Choir Brno.
Orchester der Wiener Akademie.
Дирижер Martin Haselböck.

Лог создания рипа

Exact Audio Copy V1.0 beta 3 from 29. August 2011
EAC extraction logfile from 28. February 2014, 10:44
Martin Haselböck / Hummel - Mass - Martin Haselböck
Used drive : TSSTcorpCDDVDW SH-222BB Adapter: 2 ID: 1
Read mode : Secure
Utilize accurate stream : Yes
Defeat audio cache : Yes
Make use of C2 pointers : No
Read offset correction : 6
Overread into Lead-In and Lead-Out : No
Fill up missing offset samples with silence : Yes
Delete leading and trailing silent blocks : No
Null samples used in CRC calculations : Yes
Used interface : Native Win32 interface for Win NT & 2000
Used output format : User Defined Encoder
Selected bitrate : 896 kBit/s
Quality : High
Add ID3 tag : No
Command line compressor : C:\Program Files\Exact Audio Copy\FLAC\FLAC.EXE
Additional command line options : -8 -V -T "TITLE=%title%" -T "ARTIST=%artist%" -T "ALBUMARTIST=%albumartist%" -T "ALBUM=%albumtitle%" -T "DATE=%year%" -T "TRACKNUMBER=%tracknr%" -T "TRACKTOTAL=%numtracks%" -T "GENRE=%genre%" -T "COMMENT=%comment%" -T "PERFORMER=%albuminterpret%" -T "COMPOSER=%composer%" %source% -o %dest%
TOC of the extracted CD
Track | Start | Length | Start sector | End sector
---------------------------------------------------------
1 | 0:00.00 | 5:22.70 | 0 | 24219
2 | 5:22.70 | 9:47.59 | 24220 | 68303
3 | 15:10.54 | 13:43.18 | 68304 | 130046
4 | 28:53.72 | 2:04.26 | 130047 | 139372
5 | 30:58.23 | 6:51.59 | 139373 | 170256
6 | 37:50.07 | 7:36.50 | 170257 | 204506
7 | 45:26.57 | 4:10.59 | 204507 | 223315
8 | 49:37.41 | 6:45.28 | 223316 | 253718
Range status and errors
Selected range
Filename E:\3000\[3149] Hummel – Mass – Martin Haselböck\Hummel - Mass - Martin Haselböck.wav
Peak level 100.0 %
Extraction speed 6.3 X
Range quality 99.9 %
Test CRC AF9FB565
Copy CRC AF9FB565
Copy OK
No errors occurred
AccurateRip summary
Track 1 accurately ripped (confidence 1) [90571276] (AR v1)
Track 2 accurately ripped (confidence 1) [CA7CAA6D] (AR v1)
Track 3 accurately ripped (confidence 1) [C997A2D4] (AR v1)
Track 4 accurately ripped (confidence 1) [EA40A93B] (AR v1)
Track 5 accurately ripped (confidence 1) [788BEB09] (AR v1)
Track 6 accurately ripped (confidence 1) [C56CA815] (AR v1)
Track 7 accurately ripped (confidence 1) [E13027EA] (AR v1)
Track 8 accurately ripped (confidence 1) [834614C3] (AR v1)
All tracks accurately ripped
End of status report
==== Log checksum DC3FCD3DAE0B25EA1403B08EFAB3A0DFFA518D01EFE187A768D8777DDA917795 ====

Содержание индексной карты (.CUE)

REM GENRE Classical
REM DATE 1996
REM DISCID 710D3608
REM COMMENT "ExactAudioCopy v1.0b3"
PERFORMER "Martin Haselbock"
TITLE "Hummel – Mass in E flat – Martin Haselbock"
FILE "Hummel – Mass in E flat – Martin Haselbock.flac" WAVE
TRACK 01 AUDIO
TITLE "Mass in E flat major, Op. 80 - I. Kyrie"
PERFORMER "Martin Haselbock"
INDEX 01 00:00:00
TRACK 02 AUDIO
TITLE "Mass in E flat major, Op. 80 - II. Gloria"
PERFORMER "Martin Haselbock"
INDEX 01 05:22:70
TRACK 03 AUDIO
TITLE "Mass in E flat major, Op. 80 - III. Credo"
PERFORMER "Martin Haselbock"
INDEX 01 15:10:54
TRACK 04 AUDIO
TITLE "Mass in E flat major, Op. 80 - IV. Sanctus"
PERFORMER "Martin Haselbock"
INDEX 01 28:53:72
TRACK 05 AUDIO
TITLE "Mass in E flat major, Op. 80 - V. Benedictus"
PERFORMER "Martin Haselbock"
INDEX 01 30:58:23
TRACK 06 AUDIO
TITLE "Mass in E flat major, Op. 80 - VI. Agnus Dei"
PERFORMER "Martin Haselbock"
INDEX 01 37:50:07
TRACK 07 AUDIO
TITLE "Quod quod in orbe, Graduale, Op. 88"
PERFORMER "Martin Haselbock"
INDEX 01 45:26:57
TRACK 08 AUDIO
TITLE "Alma virgo, Offertorium, Op. 89"
PERFORMER "Martin Haselbock"
INDEX 01 49:37:41
[teatrix.ru].t18607.torrent 
Торрент: Зарегистрирован [ 2016-03-17 00:32 ] · 1F2747DA1E8F1F3E1597795753EDCD71CBD1C5BB

Скачать .torrent

Скачать

11 KB

Статус: проверено
Скачан: 0 раз
Размер: 270 MB
terms.php



Быстрый ответ

Имя:

      
Для отправки сообщений необходимо включить JavaScript
Показать сообщения:    

Текущее время: 05-Дек 15:34

Часовой пояс: UTC + 3


Вы можете начинать темы
Вы можете отвечать на сообщения
Вы не можете редактировать свои сообщения
Вы не можете удалять свои сообщения
Вы не можете голосовать в опросах
Вы не можете прикреплять файлы к сообщениям
Вы можете скачивать файлы