(Classical/Organ) [LP] [24/96] Евгения Лисицина (Орган Домского концертного зала, г. Рига) - Органная музыка (J. S. Bach, J. B. J. M. Reger: Партиты на тему хорала.., Концерт № 1 для органа. Фантазия и фуга на тему Bach) - 1980, FLAC (image+.cue)


Статистика раздачи [Обновить пиров]
Размер:  451 MB   |    Зарегистрирован:  8 месяцев 21 день   |    Скачан:  0 раз

Полного источника не было: Никогда

 
   
 
 
 

[Цитировать]

Евгения Лисицина
Органная музыка (J. S. Bach, J. B. J. M. Reger)

Жанр: Classical/Organ
Носитель: LP
Год выпуска: 1980
Лейбл: Мелодия (М10 - 031833-34 002)
Страна-производитель: СССР
Аудио кодек: FLAC
Тип рипа: image+.cue
Формат записи: 24/192 dual mono
Формат раздачи: 24/96 mono
Продолжительность: 00:46:58
Тэги в .cue: прописаны
Источник оцифровки: автором раздачи
Код класса состояния винила: VG
Устройство воспроизведения: Электроника ЭП 017С
Головка звукоснимателя: ГЗМ – 028 (Корвет)
Предварительный усилитель: AMX - 100 (LTO®)
АЦП: Juli@
Программа-оцифровщик: iZotope RX 3
Обработка: удаление артефактов

Трэклист:


J. S Bach01. Партиты на тему хорала ''Sei gegrusset, Jesu gutig'' соль минор, BWV 768
02. Концерт №1 для органа соль мажор, BWV 592 (по И. Э. фон Заксен-Веймару)
a) Allegro
b) Grave
c) Presto
M. Reger
03. Фантазия и фуга на тему Bach, соч. 46
Евгения Лисицина (Орган Домского концертного зала, г. Рига)

Конверт, наклейки:


Уровень записи, спектр, АЧХ:

.cue txt:

REM GENRE Classical/Organ
REM DATE 1980
REM COMENT Vinyl, LP, Album, Мелодия М10 031833-34 002), USSR
TITLE И. С. Бах, М. Регер - Партиты, концерт №1 длдя органа, Фантазия и фуга на тему Bach
PERFORMER Евгения Лисицина
FILE "01. Е. Лисицина - И. С. Бах, М. Регер.flac" WAVE
TRACK 01 AUDIO
TITLE "01. И. С. Бах - Партиты на тему хорала ''Sei gegrusset, Jesu gutig'' соль минор, BWV 768"
INDEX 01 00:00:00
TRACK 02 AUDIO
TITLE "02. И. С. Бах - Концерт №1 для органа соль мажор, BWV 592 (по И. Э. фон Заксен-Веймару)"
INDEX 01 19:50:17
TRACK 03 AUDIO
TITLE "03. М. Регер - Фантазия и фуга на тему Bach, соч. 46"
INDEX 01 28:41:39
[teatrix.ru].t18619.torrent 
Торрент: Зарегистрирован [ 2016-03-17 00:32 ] · 424213EE820D4AEE4E2ACAD587A20A79DC707D93

Скачать .torrent

Скачать

18 KB

Статус: проверено
Скачан: 0 раз
Размер: 451 MB
terms.php



Быстрый ответ

Имя:

      
Для отправки сообщений необходимо включить JavaScript
Показать сообщения:    

Текущее время: 07-Дек 11:32

Часовой пояс: UTC + 3


Вы можете начинать темы
Вы можете отвечать на сообщения
Вы не можете редактировать свои сообщения
Вы не можете удалять свои сообщения
Вы не можете голосовать в опросах
Вы не можете прикреплять файлы к сообщениям
Вы можете скачивать файлы