(Classical) Теодор Дюбуа – Сочинения для виолончели, фортепиано и оркестра / Theodore Dubois – Fantaisie-Stuck, Suite concertant, Concerto capriccioso, In memoriam mortuorum, Andante cantabile (Coppey, Heisser) - 2011, FLAC (image+.cue) lossless


Статистика раздачи [Обновить пиров]
Размер:  320 MB   |    Зарегистрирован:  8 месяцев 24 дня   |    Скачан:  0 раз

Полного источника не было: Никогда

 
   
 
 
 

[Цитировать]

Теодор Дюбуа – Сочинения для виолончели, фортепиано и оркестра / Théodore Dubois – Fantaisie-Stück, Suite concertant, Concerto capriccioso, In memoriam mortuorum, Andante cantabile (Coppey, Heisser)
Жанр: Classical
Страна-производитель диска: Австрия
Год издания диска: 2011
Издатель (лейбл): Mirare
Номер по каталогу: MIR 141
Дата записи: октябрь 2010 г., Пуатье.
Аудиокодек: FLAC
Тип рипа: image+.cue
Битрейт аудио: lossless
Продолжительность: 01:02:45
Источник: odeonmusic
Наличие сканов в содержимом раздачи: да
Треклист:
Франсуа-Клеман Теодор Дюбуа (1837 — 1924).
Фантазия (Fantaisie-Stück) A-dur для виолончели с оркестром (опубл. 1912).
01. [I.] Allegro moderato, avec franchise. — [06:25].
02. — [II.] Andante, très calme. — [03:55].
03. — [III.] Allegro vivo, mouvement de saltarelle [03:13].
Концертная сюита h-moll для виолончели, фортепиано и оркестра (1912 — 1921?).
04. I. Maestoso, sans lenteur [08:48].
05. II. Allegretto leggiero [03:13].
06. III. Larghetto [06:05].
07. IV. Allegro [05:38].
Фортепианный концерт № 1 c-moll «Концерт-каприччио» («Concerto capriccioso»; перв. исп. 1876).
08. [Cadenza.] Andante come recitativo. — [02:21].
09. — Allegro. — [06:37].
10. — Adagio con fantasia. — [01:58].
11. — Premier mouvement. Allegro [04:23].
12. «In memoriam mortuorum» [лат. Памяти умерших] , элегическая песнь (chant élégiaque) h-moll для оркестра (опубл. 1916) [05:18].
Andante cantabile G-dur для виолончели с оркестром (опубл. 1899).
13. Andante [04:20].
Исполнители:
Marc Coppey (виолончель).
Jean-François Heisser (фортепиано, дирижер).
Orchestre Poitou-Charentes.

Лог создания рипа

Exact Audio Copy V1.0 beta 3 from 29. August 2011
EAC extraction logfile from 23. September 2012, 0:20
Jean François Heisser / Dubois - Cello and orchestra & Piano and orchestra works - Heisser
Used drive : TSSTcorpCDDVDW TS-L633M Adapter: 1 ID: 0
Read mode : Secure
Utilize accurate stream : Yes
Defeat audio cache : Yes
Make use of C2 pointers : No
Read offset correction : 6
Overread into Lead-In and Lead-Out : No
Fill up missing offset samples with silence : Yes
Delete leading and trailing silent blocks : No
Null samples used in CRC calculations : Yes
Used interface : Native Win32 interface for Win NT & 2000
Used output format : User Defined Encoder
Selected bitrate : 320 kBit/s
Quality : High
Add ID3 tag : No
Command line compressor : C:\Program Files\Exact Audio Copy\Flac\flac.exe
Additional command line options : -8 -V -T "TITLE=%title%" -T "ARTIST=%artist%" -T "ALBUMARTIST=%albumartist%" -T "ALBUM=%albumtitle%" -T "DATE=%year%" -T "TRACKNUMBER=%tracknr%" -T "TRACKTOTAL=%numtracks%" -T "GENRE=%genre%" -T "COMMENT=%comment%" -T "PERFORMER=%albuminterpret%" -T "COMPOSER=%composer%" %source% -o %dest%
TOC of the extracted CD
Track | Start | Length | Start sector | End sector
---------------------------------------------------------
1 | 0:00.00 | 6:27.31 | 0 | 29055
2 | 6:27.31 | 3:53.61 | 29056 | 46591
3 | 10:21.17 | 3:19.35 | 46592 | 61551
4 | 13:40.52 | 8:48.39 | 61552 | 101190
5 | 22:29.16 | 3:13.12 | 101191 | 115677
6 | 25:42.28 | 6:04.71 | 115678 | 143048
7 | 31:47.24 | 5:44.70 | 143049 | 168918
8 | 37:32.19 | 2:20.17 | 168919 | 179435
9 | 39:52.36 | 6:37.23 | 179436 | 209233
10 | 46:29.59 | 1:58.04 | 209234 | 218087
11 | 48:27.63 | 4:30.51 | 218088 | 238388
12 | 52:58.39 | 5:24.18 | 238389 | 262706
13 | 58:22.57 | 4:20.08 | 262707 | 282214
Range status and errors
Selected range
Filename C:\Users\JS\Desktop\Dubois - Cello and orchestra & Piano and orchestra works - Heisser\Dubois - Cello and orchestra & Piano and orchestra works - Heisser.wav
Peak level 93.7 %
Extraction speed 0.3 X
Range quality 99.9 %
Test CRC B0B5D707
Copy CRC B0B5D707
Copy OK
No errors occurred
AccurateRip summary
Track 1 not present in database
Track 2 not present in database
Track 3 not present in database
Track 4 not present in database
Track 5 not present in database
Track 6 not present in database
Track 7 not present in database
Track 8 not present in database
Track 9 not present in database
Track 10 not present in database
Track 11 not present in database
Track 12 not present in database
Track 13 not present in database
None of the tracks are present in the AccurateRip database
End of status report

Содержание индексной карты (.CUE)

REM GENRE Classical
REM DISCID B60EB20D
REM COMMENT "ExactAudioCopy v1.0b3"
PERFORMER "Jean-Francois Heisser"
TITLE "Theodore Dubois – Works for cello, piano & orchestra – Heisser"
FILE "Theodore Dubois – Works for cello, piano & orchestra – Heisser.flac" WAVE
TRACK 01 AUDIO
TITLE "Fantaisie-Stueck for cello & orchestra - I. Allegro moderato, avec franchise -"
PERFORMER "Marc Coppey & Jean-Francois Heisser"
INDEX 01 00:00:00
TRACK 02 AUDIO
TITLE "Fantaisie-Stueck for cello & orchestra - II. Andante, tres calme -"
PERFORMER "Marc Coppey & Jean-Francois Heisser"
INDEX 01 06:27:31
TRACK 03 AUDIO
TITLE "Fantaisie-Stueck for cello & orchestra - III. Allegro vivo, mouvement de saltarelle"
PERFORMER "Marc Coppey & Jean-Francois Heisser"
INDEX 01 10:21:17
TRACK 04 AUDIO
TITLE "Suite concertante for cello, piano & orchestra - I. Maestoso, sans lenteur"
PERFORMER "Marc Coppey & Jean-Francois Heisser"
INDEX 00 13:34:53
INDEX 01 13:40:52
TRACK 05 AUDIO
TITLE "Suite concertante for cello, piano & orchestra - II. Allegretto leggiero"
PERFORMER "Marc Coppey & Jean-Francois Heisser"
INDEX 01 22:29:16
TRACK 06 AUDIO
TITLE "Suite concertante for cello, piano & orchestra - III. Larghetto"
PERFORMER "Marc Coppey & Jean-Francois Heisser"
INDEX 01 25:42:28
TRACK 07 AUDIO
TITLE "Suite concertante for cello, piano & orchestra - IV. Allegro"
PERFORMER "Marc Coppey & Jean-Francois Heisser"
INDEX 01 31:47:24
TRACK 08 AUDIO
TITLE "Concerto capriccioso, for piano & orchestra - Andante come recitativo -"
PERFORMER "Jean-Francois Heisser"
INDEX 00 37:25:31
INDEX 01 37:32:19
TRACK 09 AUDIO
TITLE "Concerto capriccioso, for piano & orchestra - Allegro -"
PERFORMER "Jean-Francois Heisser"
INDEX 01 39:52:36
TRACK 10 AUDIO
TITLE "Concerto capriccioso, for piano & orchestra - Adagio con fantasia -"
PERFORMER "Jean-Francois Heisser"
INDEX 01 46:29:59
TRACK 11 AUDIO
TITLE "Concerto capriccioso, for piano & orchestra - Premier mouvement. Allegro"
PERFORMER "Jean-Francois Heisser"
INDEX 01 48:27:63
TRACK 12 AUDIO
TITLE "In memoriam mortuorum, chant elegiaque for orchestra"
PERFORMER "Jean-Francois Heisser"
INDEX 00 52:51:56
INDEX 01 52:58:39
TRACK 13 AUDIO
TITLE "Andante cantabile, for cello & orchestra"
PERFORMER "Marc Coppey & Jean-Francois Heisser"
INDEX 00 58:17:06
INDEX 01 58:22:57
[teatrix.ru].t18631.torrent 
Торрент: Зарегистрирован [ 2016-03-17 00:32 ] · 9B53949F8F5A78C9D59FF16034FB855E1E4528BB

Скачать .torrent

Скачать

14 KB

Статус: проверено
Скачан: 0 раз
Размер: 320 MB
terms.php



Быстрый ответ

Имя:

      
Для отправки сообщений необходимо включить JavaScript
Показать сообщения:    

Текущее время: 10-Дек 15:42

Часовой пояс: UTC + 3


Вы можете начинать темы
Вы можете отвечать на сообщения
Вы не можете редактировать свои сообщения
Вы не можете удалять свои сообщения
Вы не можете голосовать в опросах
Вы не можете прикреплять файлы к сообщениям
Вы можете скачивать файлы