(Classical) Essential Opera Divas (Auger, Ciofi, Gens, Price, Studer, Scuitti, Schwarzkopf, Sutherland, Gruberova, Dessay, Dernesch, Norman, Behrens, Crespin, Popp, Kanawa, Mesple, Angeles, Anderson, Callas, ...) - 2013, FLAC (tracks+.cue) lossless


 

[Цитировать]

Essential Opera Divas (Auger, Ciofi, Gens, Price, Studer, Scuitti, Schwarzkopf, Sutherland, Gruberova, Dessay, Dernesch, Norman, Behrens, Crespin, Popp, Kanawa, Mesple, Angeles, Anderson, Callas, Moffo, Sills, Gheorghiu, Freni, Scotto, Caballe, Hendricks, Dimitrova, Price, Arroyo, Mattila, Ricciarelli)
Жанр: Classical
Год издания диска: 2013
Издатель (лейбл): EMI Classics
Номер по каталогу: 50999 7 23452 2 1
Номер по каталогу: CDVP 1964047
Аудиокодек: FLAC
Тип рипа: tracks+.cue
Битрейт аудио: lossless
Продолжительность:02'35"19
Источник: скачано из сети
Наличие сканов в содержимом раздачи: да

Треклист и исполнители::

CD1
01. Ma quando tornerai - Arleen Auger - Georg Friedrich Händel
02. Anche il mar par che sommerga - Patrizia Ciofi - Antonio Vivaldi
03. Dieux puissants que j atteste...Jupiter, lance la foudre! - Veronique Gens - Christoph Willibald Gluck
04. Dove sono - Margaret Price - Wolfgang Amadeus Mozart
05. Or sai chi l onore - Cheryl Studer - Wolfgang Amadeus Mozart
06. Batti, batti, o bel Masetto - Graziella Scuitti - Wolfgang Amadeus Mozart
07. In quali eccessi, o Numi...Mi tradì quell alma ingrata - Elisbeth Schwarzkopf - Wolfgang Amadeus Mozart
08. Non mi dir - Joan Sutherland - Wolfgang Amadeus Mozart
09. Der Hölle Rache - Edita Gruberova - Wolfgang Amadeus Mozart
10. Ach, ich fühl s - Anneliese Rothenberger - Wolfgang Amadeus Mozart
11. Ruhe sanft, mein holdes Leben - Natalie Dessay - Wolfgang Amadeus Mozart
12. Abscheulicher!...Komm, Hoffnung - Helga Dernesch - Ludwig van Beethoven
13. Dich, teure Halle - Jessye Norman - Richard Wagner
14. Einsam in trüben Tagen - Hildegard Behrens - Richard Wagner
15. Euch Lüften, die mein Klagen - Regine Crespin - Richard Wagner
16. Song to the Moon - Lucia Popp - Antonín Dvorák
17. Glück, das mir verblieb - Kiri te Kanawa - Erich Wolfgang Korngold
CD2
01. Ah! Je veux vivre dans ce rêve - Mady Mesple - Charles Gounod
02. Un bouquet !...ô Dieu! que de bijoux!...Ah! je ris - Victoria De Los Angeles - Charles Gounod
03. Ombre légère - June Anderson - Giacomo Meyerbeer
04. Casta Diva - Maria Callas - Vincenzo Bellini
05. Spargi d amaro pianto - Anna Moffo - Gaetano Donizetti
06. Un voce poco fa - Beverly Sills - Gioachino Rossini
07. Vissi d arte - Angela Gheorghiu - Giacomo Puccini
08. Sì. Mi chiamano Mimì - Mirella Freni - Giacomo Puccini
09. Un bel dì vedremo - Renata Scotto - Giacomo Puccini
10. Chi il bel sogno di Doretta - Montserrat Caballe - Giacomo Puccini
11. O mio babbino caro - Barbara Hendricks - Giacomo Puccini
12. In questa reggia - Ghena Dimitrova - Giacomo Puccini
13. D amor sull ali rosee - Leontyne Price - Giuseppe Verdi
14. Pace, pace, mio Dio - Martina Arroyo - Giuseppe Verdi
15. O ma chère compagne - Karita Mattila - Giuseppe Verdi
16. Ave Maria - Katia Ricciarelli - Giuseppe Verdi

LOG EAC CD1:

Exact Audio Copy V1.0 beta 3 from 29. August 2011
EAC extraction logfile from 1. January 2014, 13:54
Various Artists / Essential Opera Divas
Used drive : Optiarc DVD RW AD-7740H Adapter: 0 ID: 0
Read mode : Secure
Utilize accurate stream : Yes
Defeat audio cache : Yes
Make use of C2 pointers : No
Read offset correction : 48
Overread into Lead-In and Lead-Out : No
Fill up missing offset samples with silence : Yes
Delete leading and trailing silent blocks : No
Null samples used in CRC calculations : Yes
Used interface : Installed external ASPI interface
Gap handling : Appended to previous track
Used output format : User Defined Encoder
Selected bitrate : 1024 kBit/s
Quality : High
Add ID3 tag : No
Command line compressor : C:\Program Files (x86)\Exact Audio Copy\Flac\flac.exe
Additional command line options : -8 -V -T "ARTIST=%artist%" -T "TITLE=%title%" -T "ALBUM=%albumtitle%" -T "DATE=%year%" -T "TRACKNUMBER=%tracknr%" -T "GENRE=%genre%" -T "PERFORMER=%albuminterpret%" -T "COMPOSER=%composer%" %haslyrics%--tag-from-file=LYRICS="%lyricsfile%"%haslyrics% -T "ALBUMARTIST=%albumartist%" -T "DISCNUMBER=%cdnumber%" -T "TOTALDISCS=%totalcds%" -T "TOTALTRACKS=%numtracks%" -T "COMMENT=%comment%" %source% -o %dest%
TOC of the extracted CD
Track | Start | Length | Start sector | End sector
---------------------------------------------------------
1 | 0:00.00 | 4:32.01 | 0 | 20400
2 | 4:32.01 | 3:45.14 | 20401 | 37289
3 | 8:17.15 | 3:33.65 | 37290 | 53329
4 | 11:51.05 | 4:20.28 | 53330 | 72857
5 | 16:11.33 | 3:00.33 | 72858 | 86390
6 | 19:11.66 | 3:53.09 | 86391 | 103874
7 | 23:05.00 | 5:37.64 | 103875 | 129213
8 | 28:42.64 | 5:06.33 | 129214 | 152196
9 | 33:49.22 | 2:51.52 | 152197 | 165073
10 | 36:40.74 | 4:09.74 | 165074 | 183822
11 | 40:50.73 | 6:21.38 | 183823 | 212435
12 | 47:12.36 | 7:38.34 | 212436 | 246819
13 | 54:50.70 | 3:30.49 | 246820 | 262618
14 | 58:21.44 | 4:58.46 | 262619 | 285014
15 | 63:20.15 | 4:09.15 | 285015 | 303704
16 | 67:29.30 | 5:54.40 | 303705 | 330294
17 | 73:23.70 | 5:36.25 | 330295 | 355519
Track 1
Filename C:\Ripipito\VA - Essential Opera Divas[2013]-FLAC\01 - Arleen Auger - Ma quando tornerai.wav
Pre-gap length 0:00:02.00
Peak level 99.7 %
Extraction speed 1.3 X
Track quality 100.0 %
Test CRC D4F68CD9
Copy CRC D4F68CD9
Track not present in AccurateRip database
Copy OK
Track 2
Filename C:\Ripipito\VA - Essential Opera Divas[2013]-FLAC\02 - Patrizia Ciofi - Anche il mar par che sommerga.wav
Pre-gap length 0:00:02.96
Peak level 64.5 %
Extraction speed 1.4 X
Track quality 100.0 %
Test CRC B0F25DE1
Copy CRC B0F25DE1
Track not present in AccurateRip database
Copy OK
Track 3
Filename C:\Ripipito\VA - Essential Opera Divas[2013]-FLAC\03 - Veronique Gens - Dieux puissants que j atteste...Jupiter, lance la foudre!.wav
Pre-gap length 0:00:01.77
Peak level 67.6 %
Extraction speed 1.5 X
Track quality 100.0 %
Test CRC 0E3077E4
Copy CRC 0E3077E4
Track not present in AccurateRip database
Copy OK
Track 4
Filename C:\Ripipito\VA - Essential Opera Divas[2013]-FLAC\04 - Margaret Price - Dove sono.wav
Pre-gap length 0:00:01.53
Peak level 88.4 %
Extraction speed 1.6 X
Track quality 100.0 %
Test CRC 1FB65ED4
Copy CRC 1FB65ED4
Track not present in AccurateRip database
Copy OK
Track 5
Filename C:\Ripipito\VA - Essential Opera Divas[2013]-FLAC\05 - Cheryl Studer - Or sai chi l onore.wav
Pre-gap length 0:00:02.96
Peak level 69.8 %
Extraction speed 1.6 X
Track quality 100.0 %
Test CRC 7F6350F1
Copy CRC 7F6350F1
Track not present in AccurateRip database
Copy OK
Track 6
Filename C:\Ripipito\VA - Essential Opera Divas[2013]-FLAC\06 - Graziella Scuitti - Batti, batti, o bel Masetto.wav
Pre-gap length 0:00:03.74
Peak level 68.5 %
Extraction speed 1.7 X
Track quality 100.0 %
Test CRC 61CDF30C
Copy CRC 61CDF30C
Track not present in AccurateRip database
Copy OK
Track 7
Filename C:\Ripipito\VA - Essential Opera Divas[2013]-FLAC\07 - Elisbeth Schwarzkopf - In quali eccessi, o Numi...Mi tradì quell alma ingrata.wav
Pre-gap length 0:00:03.10
Peak level 66.7 %
Extraction speed 1.9 X
Track quality 100.0 %
Test CRC C5008DBE
Copy CRC C5008DBE
Track not present in AccurateRip database
Copy OK
Track 8
Filename C:\Ripipito\VA - Essential Opera Divas[2013]-FLAC\08 - Joan Sutherland - Non mi dir.wav
Pre-gap length 0:00:02.68
Peak level 84.9 %
Extraction speed 1.8 X
Track quality 99.9 %
Test CRC 890981C7
Copy CRC 890981C7
Track not present in AccurateRip database
Copy OK
Track 9
Filename C:\Ripipito\VA - Essential Opera Divas[2013]-FLAC\09 - Edita Gruberova - Der Hölle Rache.wav
Pre-gap length 0:00:02.01
Peak level 88.2 %
Extraction speed 1.9 X
Track quality 100.0 %
Test CRC 87449C4B
Copy CRC 87449C4B
Track not present in AccurateRip database
Copy OK
Track 10
Filename C:\Ripipito\VA - Essential Opera Divas[2013]-FLAC\10 - Anneliese Rothenberger - Ach, ich fühl s.wav
Pre-gap length 0:00:03.14
Peak level 56.4 %
Extraction speed 1.8 X
Track quality 99.9 %
Test CRC 7328B75C
Copy CRC 7328B75C
Track not present in AccurateRip database
Copy OK
Track 11
Filename C:\Ripipito\VA - Essential Opera Divas[2013]-FLAC\11 - Natalie Dessay - Ruhe sanft, mein holdes Leben.wav
Pre-gap length 0:00:01.53
Peak level 83.3 %
Extraction speed 2.3 X
Track quality 100.0 %
Test CRC 5C630903
Copy CRC 5C630903
Track not present in AccurateRip database
Copy OK
Track 12
Filename C:\Ripipito\VA - Essential Opera Divas[2013]-FLAC\12 - Helga Dernesch - Abscheulicher!...Komm, Hoffnung.wav
Pre-gap length 0:00:01.08
Peak level 99.8 %
Extraction speed 2.5 X
Track quality 100.0 %
Test CRC 3FA774BD
Copy CRC 3FA774BD
Track not present in AccurateRip database
Copy OK
Track 13
Filename C:\Ripipito\VA - Essential Opera Divas[2013]-FLAC\13 - Jessye Norman - Dich, teure Halle.wav
Pre-gap length 0:00:02.94
Peak level 97.8 %
Extraction speed 2.4 X
Track quality 100.0 %
Test CRC 231E4FEE
Copy CRC 231E4FEE
Track not present in AccurateRip database
Copy OK
Track 14
Filename C:\Ripipito\VA - Essential Opera Divas[2013]-FLAC\14 - Hildegard Behrens - Einsam in trüben Tagen.wav
Pre-gap length 0:00:04.17
Peak level 98.8 %
Extraction speed 2.6 X
Track quality 100.0 %
Test CRC F57831DC
Copy CRC F57831DC
Track not present in AccurateRip database
Copy OK
Track 15
Filename C:\Ripipito\VA - Essential Opera Divas[2013]-FLAC\15 - Regine Crespin - Euch Lüften, die mein Klagen.wav
Pre-gap length 0:00:01.76
Peak level 39.8 %
Extraction speed 2.6 X
Track quality 100.0 %
Test CRC 7EA0A531
Copy CRC 7EA0A531
Track not present in AccurateRip database
Copy OK
Track 16
Filename C:\Ripipito\VA - Essential Opera Divas[2013]-FLAC\16 - Lucia Popp - Song to the Moon.wav
Pre-gap length 0:00:03.65
Peak level 90.7 %
Extraction speed 2.5 X
Track quality 99.9 %
Test CRC C4E04B2E
Copy CRC C4E04B2E
Track not present in AccurateRip database
Copy OK
Track 17
Filename C:\Ripipito\VA - Essential Opera Divas[2013]-FLAC\17 - Kirite Kanawa - Glück, das mir verblieb.wav
Pre-gap length 0:00:02.02
Peak level 90.9 %
Extraction speed 2.5 X
Track quality 99.9 %
Test CRC E609827F
Copy CRC E609827F
Track not present in AccurateRip database
Copy OK
None of the tracks are present in the AccurateRip database
No errors occurred
End of status report
---- CUETools DB Plugin V2.1.3
[CTDB TOCID: UdAROFp7HKRxQTtUZmggl63jb6M-] disk not present in database, Submit result: UdAROFp7HKRxQTtUZmggl63jb6M- has been uploaded
==== Log checksum 125133C9565DF71059B6FF7122D1E5949818C02A99F903795D82D18C8FA492DF ====

LOG EAC CD2:

Exact Audio Copy V1.0 beta 3 from 29. August 2011
EAC extraction logfile from 1. January 2014, 17:41
Various Artists / Essential Opera Divas
Used drive : Optiarc DVD RW AD-7740H Adapter: 0 ID: 0
Read mode : Secure
Utilize accurate stream : Yes
Defeat audio cache : Yes
Make use of C2 pointers : No
Read offset correction : 48
Overread into Lead-In and Lead-Out : No
Fill up missing offset samples with silence : Yes
Delete leading and trailing silent blocks : No
Null samples used in CRC calculations : Yes
Used interface : Installed external ASPI interface
Gap handling : Appended to previous track
Used output format : User Defined Encoder
Selected bitrate : 1024 kBit/s
Quality : High
Add ID3 tag : No
Command line compressor : C:\Program Files (x86)\Exact Audio Copy\Flac\flac.exe
Additional command line options : -8 -V -T "ARTIST=%artist%" -T "TITLE=%title%" -T "ALBUM=%albumtitle%" -T "DATE=%year%" -T "TRACKNUMBER=%tracknr%" -T "GENRE=%genre%" -T "PERFORMER=%albuminterpret%" -T "COMPOSER=%composer%" %haslyrics%--tag-from-file=LYRICS="%lyricsfile%"%haslyrics% -T "ALBUMARTIST=%albumartist%" -T "DISCNUMBER=%cdnumber%" -T "TOTALDISCS=%totalcds%" -T "TOTALTRACKS=%numtracks%" -T "COMMENT=%comment%" %source% -o %dest%
TOC of the extracted CD
Track | Start | Length | Start sector | End sector
---------------------------------------------------------
1 | 0:00.00 | 3:55.44 | 0 | 17668
2 | 3:55.44 | 5:11.20 | 17669 | 41013
3 | 9:06.64 | 6:32.15 | 41014 | 70428
4 | 15:39.04 | 5:35.67 | 70429 | 95620
5 | 21:14.71 | 4:04.09 | 95621 | 113929
6 | 25:19.05 | 5:49.62 | 113930 | 140166
7 | 31:08.67 | 3:28.74 | 140167 | 155840
8 | 34:37.66 | 4:57.66 | 155841 | 178181
9 | 39:35.57 | 4:44.40 | 178182 | 199521
10 | 44:20.22 | 3:07.10 | 199522 | 213556
11 | 47:27.32 | 2:28.34 | 213557 | 224690
12 | 49:55.66 | 6:01.52 | 224691 | 251817
13 | 55:57.43 | 4:38.41 | 251818 | 272708
14 | 60:36.09 | 5:50.61 | 272709 | 299019
15 | 66:26.70 | 4:26.07 | 299020 | 318976
16 | 70:53.02 | 5:16.46 | 318977 | 342722
Track 1
Filename C:\Ripipito\VA - Essential Opera Divas[2013]-FLAC\18 - Mady Mesple - Ah! Je veux vivre dans ce rêve.wav
Pre-gap length 0:00:02.00
Peak level 76.1 %
Extraction speed 1.2 X
Track quality 100.0 %
Test CRC B518BB21
Copy CRC B518BB21
Track not present in AccurateRip database
Copy OK
Track 2
Filename C:\Ripipito\VA - Essential Opera Divas[2013]-FLAC\19 - Victoria De Los Angeles - Un bouquet !...ô Dieu! que de bijoux!...Ah! je ris.wav
Pre-gap length 0:00:01.84
Peak level 64.3 %
Extraction speed 1.4 X
Track quality 100.0 %
Test CRC A5DD5F6F
Copy CRC A5DD5F6F
Track not present in AccurateRip database
Copy OK
Track 3
Filename C:\Ripipito\VA - Essential Opera Divas[2013]-FLAC\20 - June Anderson - Ombre légère.wav
Pre-gap length 0:00:03.24
Peak level 77.1 %
Extraction speed 1.6 X
Track quality 100.0 %
Test CRC 230874D5
Copy CRC 230874D5
Track not present in AccurateRip database
Copy OK
Track 4
Filename C:\Ripipito\VA - Essential Opera Divas[2013]-FLAC\21 - Maria Callas - Casta Diva.wav
Pre-gap length 0:00:03.57
Peak level 71.6 %
Extraction speed 1.7 X
Track quality 100.0 %
Test CRC BD07373B
Copy CRC BD07373B
Track not present in AccurateRip database
Copy OK
Track 5
Filename C:\Ripipito\VA - Essential Opera Divas[2013]-FLAC\22 - Anna Moffo - Spargi d amaro pianto.wav
Pre-gap length 0:00:03.05
Peak level 74.6 %
Extraction speed 1.8 X
Track quality 100.0 %
Test CRC 1D582667
Copy CRC 1D582667
Track not present in AccurateRip database
Copy OK
Track 6
Filename C:\Ripipito\VA - Essential Opera Divas[2013]-FLAC\23 - Beverly Sills - Un voce poco fa.wav
Pre-gap length 0:00:02.05
Peak level 87.7 %
Extraction speed 1.9 X
Track quality 100.0 %
Test CRC 2C7F5508
Copy CRC 2C7F5508
Track not present in AccurateRip database
Copy OK
Track 7
Filename C:\Ripipito\VA - Essential Opera Divas[2013]-FLAC\24 - Angela Gheorghiu - Vissi d arte.wav
Pre-gap length 0:00:03.73
Peak level 98.8 %
Extraction speed 1.9 X
Track quality 100.0 %
Test CRC 183D3D50
Copy CRC 183D3D50
Track not present in AccurateRip database
Copy OK
Track 8
Filename C:\Ripipito\VA - Essential Opera Divas[2013]-FLAC\25 - Mirella Freni - Sì. Mi chiamano Mimì.wav
Pre-gap length 0:00:02.89
Peak level 63.9 %
Extraction speed 2.1 X
Track quality 100.0 %
Test CRC AF6B4CFB
Copy CRC AF6B4CFB
Track not present in AccurateRip database
Copy OK
Track 9
Filename C:\Ripipito\VA - Essential Opera Divas[2013]-FLAC\26 - Renata Scotto - Un bel dì vedremo.wav
Pre-gap length 0:00:03.85
Peak level 67.2 %
Extraction speed 1.9 X
Track quality 99.9 %
Test CRC 86E0E792
Copy CRC 86E0E792
Track not present in AccurateRip database
Copy OK
Track 10
Filename C:\Ripipito\VA - Essential Opera Divas[2013]-FLAC\27 - Montserrat Caballe - Chi il bel sogno di Doretta.wav
Pre-gap length 0:00:04.06
Peak level 60.6 %
Extraction speed 2.1 X
Track quality 100.0 %
Test CRC 7573A6B8
Copy CRC 7573A6B8
Track not present in AccurateRip database
Copy OK
Track 11
Filename C:\Ripipito\VA - Essential Opera Divas[2013]-FLAC\28 - Barbara Hendricks - O mio babbino caro.wav
Pre-gap length 0:00:01.86
Peak level 81.0 %
Extraction speed 2.1 X
Track quality 100.0 %
Test CRC BBF42A13
Copy CRC BBF42A13
Track not present in AccurateRip database
Copy OK
Track 12
Filename C:\Ripipito\VA - Essential Opera Divas[2013]-FLAC\29 - Ghena Dimitrova - In questa reggia.wav
Pre-gap length 0:00:00.34
Peak level 99.9 %
Extraction speed 2.4 X
Track quality 100.0 %
Test CRC B55452C9
Copy CRC B55452C9
Track not present in AccurateRip database
Copy OK
Track 13
Filename C:\Ripipito\VA - Essential Opera Divas[2013]-FLAC\30 - Leontyne Price - D amor sull ali rosee.wav
Pre-gap length 0:00:02.30
Peak level 77.1 %
Extraction speed 2.2 X
Track quality 99.9 %
Test CRC 6B8F1AEA
Copy CRC 6B8F1AEA
Track not present in AccurateRip database
Copy OK
Track 14
Filename C:\Ripipito\VA - Essential Opera Divas[2013]-FLAC\31 - Martina Arroyo - Pace, pace, mio Dio.wav
Pre-gap length 0:00:02.61
Peak level 97.2 %
Extraction speed 2.6 X
Track quality 100.0 %
Test CRC 49B31D88
Copy CRC 49B31D88
Track not present in AccurateRip database
Copy OK
Track 15
Filename C:\Ripipito\VA - Essential Opera Divas[2013]-FLAC\32 - Karita Mattila - O ma chère compagne.wav
Pre-gap length 0:00:03.33
Peak level 99.9 %
Extraction speed 2.6 X
Track quality 100.0 %
Test CRC 9607CFE4
Copy CRC 9607CFE4
Track not present in AccurateRip database
Copy OK
Track 16
Filename C:\Ripipito\VA - Essential Opera Divas[2013]-FLAC\33 - Katia Ricciarelli - Ave Maria.wav
Pre-gap length 0:00:03.16
Peak level 54.3 %
Extraction speed 2.7 X
Track quality 100.0 %
Test CRC F51412CE
Copy CRC F51412CE
Track not present in AccurateRip database
Copy OK
None of the tracks are present in the AccurateRip database
No errors occurred
End of status report
---- CUETools DB Plugin V2.1.3
[CTDB TOCID: Xpvoin5kNlknodlwhtefov9Kiq8-] disk not present in database, Submit result: Xpvoin5kNlknodlwhtefov9Kiq8- has been uploaded
==== Log checksum 93FDBACEE410453F9E3C77BC24993DFB199BBD5DF005793686642F7CB7253091 ====

LOG (.CUE) CD1:

REM GENRE Classical
REM DATE 2013
REM DISCID D7128411
REM COMMENT "ExactAudioCopy v1.0b3"
CATALOG 5099972345320
PERFORMER "Various Artists"
TITLE "Essential Opera Divas"
FILE "01 - Arleen Auger - Ma quando tornerai.wav" WAVE
TRACK 01 AUDIO
TITLE " Ma quando tornerai"
PERFORMER "Arleen Auger"
ISRC GBAYD0600137
INDEX 01 00:00:00
TRACK 02 AUDIO
TITLE "Anche il mar par che sommerga"
PERFORMER "Patrizia Ciofi"
ISRC GBAYC0401881
INDEX 00 04:29:04
FILE "02 - Patrizia Ciofi - Anche il mar par che sommerga.wav" WAVE
INDEX 01 00:00:00
TRACK 03 AUDIO
TITLE "Dieux puissants que j atteste...Jupiter, lance la foudre!"
PERFORMER "Veronique Gens"
ISRC GBAYC0502281
INDEX 00 03:43:31
FILE "03 - Veronique Gens - Dieux puissants que j atteste...Jupiter, lance la foudre!.wav" WAVE
INDEX 01 00:00:00
TRACK 04 AUDIO
TITLE "Dove sono"
PERFORMER "Margaret Price"
ISRC GBAYC8600674
INDEX 00 03:32:25
FILE "04 - Margaret Price - Dove sono.wav" WAVE
INDEX 01 00:00:00
TRACK 05 AUDIO
TITLE "Or sai chi l onore"
PERFORMER "Cheryl Studer"
ISRC GBAYC9004386
INDEX 00 04:17:31
FILE "05 - Cheryl Studer - Or sai chi l onore.wav" WAVE
INDEX 01 00:00:00
TRACK 06 AUDIO
TITLE "Batti, batti, o bel Masetto"
PERFORMER "Graziella Scuitti"
ISRC GBAYC0201443
INDEX 00 02:56:52
FILE "06 - Graziella Scuitti - Batti, batti, o bel Masetto.wav" WAVE
INDEX 01 00:00:00
TRACK 07 AUDIO
TITLE "In quali eccessi, o Numi...Mi tradм quell alma ingrata"
PERFORMER "Elisbeth Schwarzkopf"
ISRC GBAYC1103207
INDEX 00 03:50:01
FILE "07 - Elisbeth Schwarzkopf - In quali eccessi, o Numi...Mi tradм quell alma ingrata.wav" WAVE
INDEX 01 00:00:00
TRACK 08 AUDIO
TITLE "Non mi dir"
PERFORMER "Joan Sutherland"
ISRC GBAYC0201488
INDEX 00 05:35:13
FILE "08 - Joan Sutherland - Non mi dir.wav" WAVE
INDEX 01 00:00:00
TRACK 09 AUDIO
TITLE "Der Hцlle Rache"
PERFORMER "Edita Gruberova"
ISRC GBAYC8100313
INDEX 00 05:04:32
FILE "09 - Edita Gruberova - Der Hцlle Rache.wav" WAVE
INDEX 01 00:00:00
TRACK 10 AUDIO
TITLE "Ach, ich fьhl s"
PERFORMER "Anneliese Rothenberger"
ISRC DEC628600591
INDEX 00 02:48:41
FILE "10 - Anneliese Rothenberger - Ach, ich fьhl s.wav" WAVE
INDEX 01 00:00:00
TRACK 11 AUDIO
TITLE "Ruhe sanft, mein holdes Leben"
PERFORMER "Natalie Dessay"
ISRC GBAYC0002651
INDEX 00 04:08:34
FILE "11 - Natalie Dessay - Ruhe sanft, mein holdes Leben.wav" WAVE
INDEX 01 00:00:00
TRACK 12 AUDIO
TITLE "Abscheulicher!...Komm, Hoffnung"
PERFORMER "Helga Dernesch"
ISRC GBAYC8901486
INDEX 00 06:20:32
FILE "12 - Helga Dernesch - Abscheulicher!...Komm, Hoffnung.wav" WAVE
INDEX 01 00:00:00
TRACK 13 AUDIO
TITLE "Dich, teure Halle"
PERFORMER "Jessye Norman"
ISRC GBAYC8702455
INDEX 00 07:35:38
FILE "13 - Jessye Norman - Dich, teure Halle.wav" WAVE
INDEX 01 00:00:00
TRACK 14 AUDIO
TITLE "Einsam in trьben Tagen"
PERFORMER "Hildegard Behrens"
ISRC GBAYC8601953
INDEX 00 03:26:36
FILE "14 - Hildegard Behrens - Einsam in trьben Tagen.wav" WAVE
INDEX 01 00:00:00
TRACK 15 AUDIO
TITLE "Euch Lьften, die mein Klagen"
PERFORMER "Regine Crespin"
ISRC FRZ119303680
INDEX 00 04:56:64
FILE "15 - Regine Crespin - Euch Lьften, die mein Klagen.wav" WAVE
INDEX 01 00:00:00
TRACK 16 AUDIO
TITLE "Song to the Moon"
PERFORMER "Lucia Popp"
ISRC GBAYC8700951
INDEX 00 04:05:41
FILE "16 - Lucia Popp - Song to the Moon.wav" WAVE
INDEX 01 00:00:00
TRACK 17 AUDIO
TITLE "Glьck, das mir verblieb"
PERFORMER "Kirite Kanawa"
ISRC GBAYC9702016
INDEX 00 05:52:38
FILE "17 - Kirite Kanawa - Glьck, das mir verblieb.wav" WAVE
INDEX 01 00:00:00

LOG (.CUE) CD2:

REM GENRE Classical
REM DATE 2013
REM DISCID 1211D910
REM COMMENT "ExactAudioCopy v1.0b3"
CATALOG 5099972345528
PERFORMER "Various Artists"
TITLE "Essential Opera Divas"
FILE "18 - Mady Mesple - Ah! Je veux vivre dans ce rкve.wav" WAVE
TRACK 01 AUDIO
TITLE "Ah! Je veux vivre dans ce rкve"
PERFORMER "Mady Mesple"
ISRC FRZ119303696
INDEX 01 00:00:00
TRACK 02 AUDIO
TITLE "Un bouquet !...ф Dieu! que de bijoux!...Ah! je ris"
PERFORMER "Victoria De Los Angeles"
ISRC GBAYC0300045
INDEX 00 03:53:56
FILE "19 - Victoria De Los Angeles - Un bouquet !...ф Dieu! que de bijoux!...Ah! je ris.wav" WAVE
INDEX 01 00:00:00
TRACK 03 AUDIO
TITLE "Ombre lйgиre"
PERFORMER "June Anderson"
ISRC FRZ118900380
INDEX 00 05:08:02
FILE "20 - June Anderson - Ombre lйgиre.wav" WAVE
INDEX 01 00:00:00
TRACK 04 AUDIO
TITLE "Casta Diva"
PERFORMER "Maria Callas"
ISRC GBAYC9702225
INDEX 00 06:28:47
FILE "21 - Maria Callas - Casta Diva.wav" WAVE
INDEX 01 00:00:00
TRACK 05 AUDIO
TITLE "Spargi d amaro pianto"
PERFORMER "Anna Moffo"
ISRC GBAYC1103201
INDEX 00 05:32:63
FILE "22 - Anna Moffo - Spargi d amaro pianto.wav" WAVE
INDEX 01 00:00:00
TRACK 06 AUDIO
TITLE "Un voce poco fa"
PERFORMER "Beverly Sills"
ISRC GBAYC9601614
INDEX 00 04:02:05
FILE "23 - Beverly Sills - Un voce poco fa.wav" WAVE
INDEX 01 00:00:00
TRACK 07 AUDIO
TITLE "Vissi d arte"
PERFORMER "Angela Gheorghiu"
ISRC GBAYC0003463
INDEX 00 05:46:07
FILE "24 - Angela Gheorghiu - Vissi d arte.wav" WAVE
INDEX 01 00:00:00
TRACK 08 AUDIO
TITLE "Sм. Mi chiamano Mimм"
PERFORMER "Mirella Freni"
ISRC GBAYC0701101
INDEX 00 03:26:07
FILE "25 - Mirella Freni - Sм. Mi chiamano Mimм.wav" WAVE
INDEX 01 00:00:00
TRACK 09 AUDIO
TITLE "Un bel dм vedremo"
PERFORMER "Renata Scotto"
ISRC GBAYC0201550
INDEX 00 04:54:02
FILE "26 - Renata Scotto - Un bel dм vedremo.wav" WAVE
INDEX 01 00:00:00
TRACK 10 AUDIO
TITLE "Chi il bel sogno di Doretta"
PERFORMER "Montserrat Caballe"
ISRC GBAYC0801962
INDEX 00 04:40:35
FILE "27 - Montserrat Caballe - Chi il bel sogno di Doretta.wav" WAVE
INDEX 01 00:00:00
TRACK 11 AUDIO
TITLE "O mio babbino caro"
PERFORMER "Barbara Hendricks"
ISRC GBAYC0301564
INDEX 00 03:05:20
FILE "28 - Barbara Hendricks - O mio babbino caro.wav" WAVE
INDEX 01 00:00:00
TRACK 12 AUDIO
TITLE "In questa reggia"
PERFORMER "Ghena Dimitrova"
ISRC GBAYC0501396
INDEX 00 02:28:08
FILE "29 - Ghena Dimitrova - In questa reggia.wav" WAVE
INDEX 01 00:00:00
TRACK 13 AUDIO
TITLE "D amor sull ali rosee"
PERFORMER "Leontyne Price"
ISRC GBAYC8601351
INDEX 00 05:59:29
FILE "30 - Leontyne Price - D amor sull ali rosee.wav" WAVE
INDEX 01 00:00:00
TRACK 14 AUDIO
TITLE "Pace, pace, mio Dio"
PERFORMER "Martina Arroyo"
ISRC GBAYC9301103
INDEX 00 04:35:70
FILE "31 - Martina Arroyo - Pace, pace, mio Dio.wav" WAVE
INDEX 01 00:00:00
TRACK 15 AUDIO
TITLE "O ma chиre compagne"
PERFORMER "Karita Mattila"
ISRC FRZ119601010
INDEX 00 05:47:36
FILE "32 - Karita Mattila - O ma chиre compagne.wav" WAVE
INDEX 01 00:00:00
TRACK 16 AUDIO
TITLE "Ave Maria"
PERFORMER "Katia Ricciarelli"
ISRC GBAYC8501246
INDEX 00 04:22:70
FILE "33 - Katia Ricciarelli - Ave Maria.wav" WAVE
INDEX 01 00:00:00
mp3



Показать сообщения:    

Текущее время: 10-Дек 23:27

Часовой пояс: UTC + 3


Вы не можете начинать темы
Вы не можете отвечать на сообщения
Вы не можете редактировать свои сообщения
Вы не можете удалять свои сообщения
Вы не можете голосовать в опросах
Вы не можете прикреплять файлы к сообщениям
Вы не можете скачивать файлы