(Classical/Choral) Губайдулина - Похвала Солнцу, Посвящение Марине Цветаевой/Gubaidulina - The Canticle of the Sun, Hommage a Marina Tsvetayeva (Давид Герингас/David Geringas, Danish National Choir, Stefan Parkman) - 2003, FLAC (image+.cue) lossless


Статистика раздачи [Обновить пиров]
Размер:  191 MB   |    Зарегистрирован:  10 месяцев 6 дней   |    Скачан:  0 раз

Полного источника не было: Никогда

 
   
 
 
 

[Цитировать]

София Губайдулина - Похвала Солнцу, Посвящение Марине Цветаевой / Sofia Gubaidulina - The Canticle of the Sun, Hommage a Marina Tsvetayeva (Давид Герингас / David Geringas, Danish National Choir, Stefan Parkman)
Жанр: Classical/Choral
Страна-производитель диска: EU
Год издания диска: 2003
Издатель (лейбл): Chandos
Номер по каталогу: CHAN 10106
Дата записи: 1999, 2002
Аудиокодек: FLAC
Тип рипа: image+.cue
Битрейт аудио: lossless
Продолжительность: 54:53
Источник: собственный рип
Наличие сканов в содержимом раздачи: да
Треклист:
София Губайдулина / Sofia Gubaidulina (b. 1931)
The Canticle of the Sun by St Francis of Asissi (1997)* 36:46
"Похвала Солнцу" на тексты Св. Франциска Ассизского
for Cello, Chamber Choir and Percussion
Dedicated to Mstislav Rostropovich
Marianne Lund soprano - Jane Bertlesen alto
Poul Embourg tenor - Rune Stensvold bass
Gert Sørensen - Tom Nybye percussion
Alice Nørregaard celesta
1 'Altissimo onnipotente bon Signore' - 6:00
2 'Laudato si, mi SIgnore, per cun tucte le tue creature' - 1:27
3 'Laudato si, mi Signore, per sora luna e le stelle' - 1:06
4 'Laudato si, mi Signore, per frate vento' - 0:54
5 'Laudato si, mi Signore, per sora acqua' - 0:40
6 'Laudato si, mi Signore, per frate foco' - 0:42
7 'Laudato si, mi Signore' per sora nostra matre terra' - 4:25
8 'Altissimo, Altissimo' - 3:45
9 'Laudato si, mi Signore, per quelli ke perdonano' - 3:37
10 'Domine. Miserere. Amen' - 5:40
11 'Laudato si, mi Signore, per sora nostra morte corporale' - 5:01
12 'Laudate et benedicete mi Signore' 3:27
Hommage à Marina Tsvetayeva (1984) 17:56
Посвящение Марине Цветаевой (цикл хоров без сопровождения)
Marianne Lund soprano
Annette Simonsen alto
Kim GIles Nandfred tenor
Jørgen Ditlevsen bass
13 I Below the Waves 3:40
14 II Horse 1:14
15 III All Magnificence 3:23
16 IV Interlude 1:38
17 V A Garden 7:48
Исполнители:
Давид Герингас / David Geringas cello*
Danish National Choir
Stefan Parkman

Лог создания рипа

Exact Audio Copy V1.0 beta 3 from 29. August 2011
Отчёт EAC об извлечении, выполненном 28. мая 2014, 2:17
Danish National Choir, Stefan Parkman / The Canticle of the Sun, Hommage à Marina Tsvetayeva
Дисковод: HL-DT-STDVDRAM GU71N Adapter: 2 ID: 0
Режим чтения : Достоверность
Использование точного потока : Да
Отключение кэша аудио : Да
Использование указателей C2 : Нет
Коррекция смещения при чтении : 6
Способность читать области Lead-in и Lead-out : Нет
Заполнение пропущенных сэмплов тишиной : Да
Удаление блоков с тишиной в начале и конце : Нет
При вычислениях CRC использовались нулевые сэмплы : Да
Интерфейс : Встроенный Win32-интерфейс для Win NT/2000
Выходной формат : Пользовательский кодировщик
Выбранный битрейт : 1024 kBit/s
Качество : Высокий
Добавление ID3-тега : Нет
Утилита сжатия : C:\Program Files (x86)\Exact Audio Copy\Flac\flac.exe
Дополнительные параметры : -8 -V -T "ALBUMARTIST=%albumartist%" -T "ALBUM=%albumtitle%" -T "DATE=%year%" -T "TRACKTOTAL=%numtracks%" -T "GENRE=%genre%" -T "COMMENT=%comment%" -T "PERFORMER=%albuminterpret%" -T "COMPOSER=%composer%" %source% -o %dest%
TOC извлечённого CD
Трек | Старт | Длительность | Начальный сектор | Конечный сектор
---------------------------------------------------------------------
1 | 0:00.00 | 6:00.63 | 0 | 27062
2 | 6:00.63 | 1:27.45 | 27063 | 33632
3 | 7:28.33 | 1:05.70 | 33633 | 38577
4 | 8:34.28 | 0:53.70 | 38578 | 42622
5 | 9:28.23 | 0:40.40 | 42623 | 45662
6 | 10:08.63 | 0:42.15 | 45663 | 48827
7 | 10:51.03 | 4:25.25 | 48828 | 68727
8 | 15:16.28 | 3:44.55 | 68728 | 85582
9 | 19:01.08 | 3:37.30 | 85583 | 101887
10 | 22:38.38 | 5:40.45 | 101888 | 127432
11 | 28:19.08 | 5:00.60 | 127433 | 149992
12 | 33:19.68 | 3:34.35 | 149993 | 166077
13 | 36:54.28 | 3:41.55 | 166078 | 182707
14 | 40:36.08 | 1:16.05 | 182708 | 188412
15 | 41:52.13 | 3:29.25 | 188413 | 204112
16 | 45:21.38 | 1:40.35 | 204113 | 211647
17 | 47:01.73 | 7:50.02 | 211648 | 246899
Характеристики диапазона извлечения и сообщения об ошибках
Выбранный диапазон
Имя файла H:\Rips\Gubaidulina - The Canticle of the Sun, Hommage a Marina Tsvetayeva - CHAN 10106\The Canticle of the Sun, Hommage a Marina Tsvetayeva.wav
Пиковый уровень 99.4 %
Скорость извлечения 2.0 X
Качество диапазона 100.0 %
CRC теста 4FC0B673
CRC копии 4FC0B673
Копирование... OK
Ошибок не произошло
AccurateRip: сводка
Трек 1 : извлечено точно (доверие 2) [17F20E5F] (AR v1)
Трек 2 : извлечено точно (доверие 2) [C671D57C] (AR v1)
Трек 3 : извлечено точно (доверие 2) [1CA0C511] (AR v1)
Трек 4 : извлечено точно (доверие 2) [E72D57EE] (AR v1)
Трек 5 : извлечено точно (доверие 2) [2C3B2540] (AR v1)
Трек 6 : извлечено точно (доверие 2) [3463E77F] (AR v1)
Трек 7 : извлечено точно (доверие 2) [2D1A930D] (AR v1)
Трек 8 : извлечено точно (доверие 2) [9C447BC7] (AR v1)
Трек 9 : извлечено точно (доверие 2) [909EFE4E] (AR v1)
Трек 10 : извлечено точно (доверие 2) [9C80663A] (AR v1)
Трек 11 : извлечено точно (доверие 2) [E0D874E2] (AR v1)
Трек 12 : извлечено точно (доверие 2) [4CBB547E] (AR v1)
Трек 13 : извлечено точно (доверие 2) [C4D3E5FD] (AR v1)
Трек 14 : извлечено точно (доверие 2) [8B49E485] (AR v1)
Трек 15 : извлечено точно (доверие 2) [B84D24B0] (AR v1)
Трек 16 : извлечено точно (доверие 2) [A3CED006] (AR v1)
Трек 17 : извлечено точно (доверие 2) [9AB54B18] (AR v1)
Все треки извлечены точно
Конец отчёта
==== Контрольная сумма отчёта D580E4955DFECCEB45700F7CE1961598EF690BC27CB8142294E7B1B527162168 ====

Содержание индексной карты (.CUE)

REM GENRE Classical
REM DATE 2003
REM DISCID B90CDC11
REM COMMENT "ExactAudioCopy v1.0b3"
PERFORMER "Danish National Choir, Stefan Parkman"
TITLE "The Canticle of the Sun, Hommage a Marina Tsvetayeva"
FILE "The Canticle of the Sun, Hommage a Marina Tsvetayeva.flac" WAVE
TRACK 01 AUDIO
TITLE "The Canticle of the Sun by Saint Francis of Assisi: I. Altissimo omnipotente bon Signore"
PERFORMER "David Geringas"
INDEX 01 00:00:00
TRACK 02 AUDIO
TITLE "II. Laudato si, mi Signore, cun tucte le tue creature"
PERFORMER "David Geringas"
INDEX 01 06:00:63
TRACK 03 AUDIO
TITLE "III. Laudato si, mi Signore, per sora luna e le stelle"
PERFORMER "David Geringas"
INDEX 01 07:28:33
TRACK 04 AUDIO
TITLE "IV. Laudato si, mi Signore, per frate vento"
PERFORMER "David Geringas"
INDEX 01 08:34:28
TRACK 05 AUDIO
TITLE "V. Laudato si, mi Signore, per sora acqua"
PERFORMER "David Geringas"
INDEX 01 09:28:23
TRACK 06 AUDIO
TITLE "VI. Laudato si, mi Signore, per frate foco"
PERFORMER "David Geringas"
INDEX 01 10:08:63
TRACK 07 AUDIO
TITLE "VII. Laudato si, mi Signore, per sora nostra matre terra"
PERFORMER "David Geringas"
INDEX 01 10:51:03
TRACK 08 AUDIO
TITLE "VIII. Altissimo, Altissimo"
PERFORMER "David Geringas"
INDEX 01 15:16:28
TRACK 09 AUDIO
TITLE "IX. Laudato si, mi Signore, per quelli ke perdonano"
PERFORMER "David Geringas"
INDEX 01 19:01:08
TRACK 10 AUDIO
TITLE "X. Domine. Miserere. Amen"
PERFORMER "David Geringas"
INDEX 01 22:38:38
TRACK 11 AUDIO
TITLE "XI. Laudato si, mi Signore, per sora nostra morte corporale"
PERFORMER "David Geringas"
INDEX 01 28:19:08
TRACK 12 AUDIO
TITLE "XII. Laudate et benedicete mi Signore"
PERFORMER "David Geringas"
INDEX 01 33:19:68
TRACK 13 AUDIO
TITLE "Hommage a Marina Tsvetayeva: I. Below the Waves"
PERFORMER "Danish National Choir, Stefan Parkman"
INDEX 00 36:47:10
INDEX 01 36:54:28
TRACK 14 AUDIO
TITLE "II. Horse"
PERFORMER "Danish National Choir, Stefan Parkman"
INDEX 00 40:34:45
INDEX 01 40:36:08
TRACK 15 AUDIO
TITLE "III. All Magnificence"
PERFORMER "Danish National Choir, Stefan Parkman"
INDEX 00 41:50:25
INDEX 01 41:52:13
TRACK 16 AUDIO
TITLE "IV. Interlude"
PERFORMER "Danish National Choir, Stefan Parkman"
INDEX 00 45:15:30
INDEX 01 45:21:38
TRACK 17 AUDIO
TITLE "V. A Garden"
PERFORMER "Danish National Choir, Stefan Parkman"
INDEX 00 46:59:55
INDEX 01 47:01:73
Доп. информация: Предлагаю на замену: http://teatrix.ru/viewtopic.php?t=1338852
[teatrix.ru].t18658.torrent 
Торрент: Зарегистрирован [ 2016-03-17 00:31 ] · 6AF99B4EEF2B7324A959B0C3B628006C827856BF

Скачать .torrent

Скачать

31 KB

Статус: проверено
Скачан: 0 раз
Размер: 191 MB
terms.php



Быстрый ответ

Имя:

      
Для отправки сообщений необходимо включить JavaScript
Показать сообщения:    

Текущее время: 23-Янв 23:59

Часовой пояс: UTC + 3


Вы можете начинать темы
Вы можете отвечать на сообщения
Вы не можете редактировать свои сообщения
Вы не можете удалять свои сообщения
Вы не можете голосовать в опросах
Вы не можете прикреплять файлы к сообщениям
Вы можете скачивать файлы