(Classical/Cello) Гия Канчели - Сими, Оплаканный ветром / Giya Kancheli - Simi, Mourned by the Wind (Александр Ивашкин, Валерий Полянский / Alexander Ivashkin, Valeri Polyansky) - 2005, FLAC (image+.cue) lossless


Статистика раздачи [Обновить пиров]
Размер:  219 MB   |    Зарегистрирован:  8 месяцев 20 дней   |    Скачан:  0 раз

Полного источника не было: Никогда

 
   
 
 
 

[Цитировать]

Гия Канчели - Сими, Оплаканный ветром / Giya Kancheli - Simi, Mourned by the Wind (Александр Ивашкин, Валерий Полянский / Alexander Ivashkin, Valeri Polyansky)
Жанр: Classical/Cello
Страна-производитель диска: EU
Год издания диска: 2005
Издатель (лейбл): Chandos
Номер по каталогу: CHAN 10297
Дата записи: 2004
Аудиокодек: FLAC
Тип рипа: image+.cue
Битрейт аудио: lossless
Продолжительность: 64:59
Источник: собственный рип
Наличие сканов в содержимом раздачи: да
Треклист:
Гия Канчели / Giya Kancheli (b. 1935)
1 Simi 26:42
Bleak reflections for cello and orchestra
Оплаканный ветром / Mourned by the Wind 38:06
Liturgy in memoriam Givi Ordzhonikidze
Литургия памяти Гиви Орджоникидзе
For symphony orchestra and solo cello
2 I Largo 9:29
3 II Allegro moderato 8:11
4 III Larghetto 6:45
5 IV Andante maestoso 13:32
Исполнители:
Александр Ивашкин / Alexander Ivashkin cello
Государственный симфонический оркестр России / Russian State Symphony Orchestra
Валерий Полянский / Valeri Polyansky

Лог создания рипа

Exact Audio Copy V1.0 beta 3 from 29. August 2011
Отчёт EAC об извлечении, выполненном 28. мая 2014, 3:14
Alexander Ivashkin, Russian State Symphony Orchestra, Valeri Polyansky / Simi - Mourned by the Wind
Дисковод: HL-DT-STDVDRAM GU71N Adapter: 2 ID: 0
Режим чтения : Достоверность
Использование точного потока : Да
Отключение кэша аудио : Да
Использование указателей C2 : Нет
Коррекция смещения при чтении : 6
Способность читать области Lead-in и Lead-out : Нет
Заполнение пропущенных сэмплов тишиной : Да
Удаление блоков с тишиной в начале и конце : Нет
При вычислениях CRC использовались нулевые сэмплы : Да
Интерфейс : Встроенный Win32-интерфейс для Win NT/2000
Выходной формат : Пользовательский кодировщик
Выбранный битрейт : 1024 kBit/s
Качество : Высокий
Добавление ID3-тега : Нет
Утилита сжатия : C:\Program Files (x86)\Exact Audio Copy\Flac\flac.exe
Дополнительные параметры : -8 -V -T "ALBUMARTIST=%albumartist%" -T "ALBUM=%albumtitle%" -T "DATE=%year%" -T "TRACKTOTAL=%numtracks%" -T "GENRE=%genre%" -T "COMMENT=%comment%" -T "PERFORMER=%albuminterpret%" -T "COMPOSER=%composer%" %source% -o %dest%
TOC извлечённого CD
Трек | Старт | Длительность | Начальный сектор | Конечный сектор
---------------------------------------------------------------------
1 | 0:00.00 | 26:49.33 | 0 | 120707
2 | 26:49.33 | 9:30.74 | 120708 | 163531
3 | 36:20.32 | 8:13.01 | 163532 | 200507
4 | 44:33.33 | 6:49.01 | 200508 | 231183
5 | 51:22.34 | 13:34.41 | 231184 | 292274
Характеристики диапазона извлечения и сообщения об ошибках
Выбранный диапазон
Имя файла H:\Rips\Giya Kancheli - Simi - Mourned by the Wind - Ivashkin, Polyansky - CHAN 10297\Simi - Mourned by the Wind.wav
Пиковый уровень 98.8 %
Скорость извлечения 2.1 X
Качество диапазона 99.9 %
CRC теста 51F8F20C
CRC копии 51F8F20C
Копирование... OK
Ошибок не произошло
AccurateRip: сводка
Трек 1 : извлечено точно (доверие 1) [45AAF393] (AR v1)
Трек 2 : извлечено точно (доверие 1) [D6BB3D7C] (AR v1)
Трек 3 : извлечено точно (доверие 1) [6D47195B] (AR v1)
Трек 4 : извлечено точно (доверие 1) [3506FA5C] (AR v1)
Трек 5 : извлечено точно (доверие 1) [0607CA5B] (AR v1)
Все треки извлечены точно
Конец отчёта
==== Контрольная сумма отчёта F9EB5F85BDF1717B05C9C494221D82C5113D1FAFEBBA46F00E2C19A238A1ADF5 ====

Содержание индексной карты (.CUE)

REM GENRE Classical
REM DATE 2005
REM DISCID 3B0F3905
REM COMMENT "ExactAudioCopy v1.0b3"
PERFORMER "Alexander Ivashkin, Russian State Symphony Orchestra, Valeri Polyansky"
TITLE "Simi - Mourned by the Wind"
FILE "Simi - Mourned by the Wind.flac" WAVE
TRACK 01 AUDIO
TITLE "Simi - Bleak Reflections for Cello and Orchestra"
PERFORMER "Alexander Ivashkin, Russian State Symphony Orchestra, Valeri Polyansky"
INDEX 01 00:00:00
TRACK 02 AUDIO
TITLE "Mourned by the Wind - I - Largo"
PERFORMER "Alexander Ivashkin, Russian State Symphony Orchestra, Valeri Polyansky"
INDEX 00 26:43:17
INDEX 01 26:49:33
TRACK 03 AUDIO
TITLE "II - Allegro moderato"
PERFORMER "Alexander Ivashkin, Russian State Symphony Orchestra, Valeri Polyansky"
INDEX 00 36:18:49
INDEX 01 36:20:32
TRACK 04 AUDIO
TITLE "III - Larghetto"
PERFORMER "Alexander Ivashkin, Russian State Symphony Orchestra, Valeri Polyansky"
INDEX 00 44:31:50
INDEX 01 44:33:33
TRACK 05 AUDIO
TITLE "IV - Andante maestoso"
PERFORMER "Alexander Ivashkin, Russian State Symphony Orchestra, Valeri Polyansky"
INDEX 00 51:18:25
INDEX 01 51:22:34
Доп. информация: Предлагаю на замену: http://teatrix.ru/viewtopic.php?t=2154976
[teatrix.ru].t18659.torrent 
Торрент: Зарегистрирован [ 2016-03-17 00:31 ] · E8FC66EA330F14B113EA841A930952DECEA1E195

Скачать .torrent

Скачать

35 KB

Статус: проверено
Скачан: 0 раз
Размер: 219 MB
terms.php



Быстрый ответ

Имя:

      
Для отправки сообщений необходимо включить JavaScript
Показать сообщения:    

Текущее время: 06-Дек 11:08

Часовой пояс: UTC + 3


Вы можете начинать темы
Вы можете отвечать на сообщения
Вы не можете редактировать свои сообщения
Вы не можете удалять свои сообщения
Вы не можете голосовать в опросах
Вы не можете прикреплять файлы к сообщениям
Вы можете скачивать файлы