(Classical) Rodrigo - Concierto De Aranjuez,Invocacion Y Danza,Fantasia Para Un Gentilhombre;Falla - Homenaje, Danza Del Molinero (Milos Karadaglic;London Philharmonic Orchestra/ Nezet-Seguin) - 2014, FLAC (image+.cue) lossless


Статистика раздачи [Обновить пиров]
Размер:  221 MB   |    Зарегистрирован:  8 месяцев 22 дня   |    Скачан:  1 раз

Полного источника не было: 3 месяца 25 дней

 
   
 
 
 

[Цитировать]

Joaquin Rodrigo- Concierto De Aranjuez,Invocacion Y Danza,
Fantasia Para Un Gentilhombre

Manuel De Falla - Homenaje, Danza Del Molinero
(Milos Karadaglic;London Philharmonic Orchestra/ Nezet-Seguin)
Жанр: Classical
Страна-производитель диска: E.U.
Год издания диска: 2014
Издатель (лейбл): Mercury Classics,Deutsche Grammophon
Номер по каталогу: 481 0652
Дата записи: 8-9/2013
Аудиокодек: FLAC
Тип рипа: image+.cue
Битрейт аудио: lossless
Продолжительность: 1:00:06
Источник: JVA
Наличие сканов в содержимом раздачи: да
Треклист:
Joaquin Rodrigo 1901-1999
Concierto De Aranjuez - for guitar and orchestra
01. I. Allegro con spirito (5:58)
02. II. Adagio (10:52)
03. III. Allegro gentile (4:42)
Sue Bohling cor anglais solo
Manuel De Falla 1876-1946
04. Homenaje - Le tombeau de Claude Debussy (3:52)
for solo guitar edited by Michael Lewin
05. Danza Del Molinero (3:02)
Farruca from "El sombrero de tres picos"
arranged for solo guitar by Michael Lewin
Joaquin Rodrigo
06. Invocacion Y Danza (9:14)
Homenaje a Manuel de Falla for solo guitar
Fantasia Para Un Gentilhombre
for guitar and orchestra
07. I. Villano Y Ricercar (5:07)
08. II. Espanoleta Y Fanfarria de la Caballeria de Napoles (10:20)
09. III. Danza de las Hachas (2:01)
10. IV. Canario (4:58)
Исполнители:
Milos Karadaglic guitar
London Philharmonic Orchestra
Yannick Nezet-Seguin

Лог создания рипа

Exact Audio Copy V0.99 prebeta 5 from 4. May 2009
Отчёт EAC об извлечении, выполненном 29. мая 2014, 14:48
Milos Karadaglic / Aranjuez
Дисковод: _NEC DVD_RW ND-4571A Adapter: 0 ID: 0
Режим чтения : Достоверность
Использование точного потока : Да
Отключение кэша аудио : Да
Использование указателей C2 : Нет
Коррекция смещения при чтении : 48
Способность читать области Lead-in и Lead-out : Нет
Заполнение пропущенных сэмплов тишиной : Да
Удаление блоков с тишиной в начале и конце : Нет
При вычислениях CRC использовались нулевые сэмплы : Да
Интерфейс : Встроенный Win32-интерфейс для Win NT/2000
Выходной формат : Пользовательский кодировщик
Выбранный битрейт : 768 kBit/s
Качество : Высокий
Добавление ID3-тэга : Нет
Утилита сжатия : C:\Program Files\Exact Audio Copy\Flac\flac.exe
Дополнительные параметры : -6 -V -T "ARTIST=%a" -T "TITLE=%t" -T "ALBUM=%g" -T "DATE=%y" -T "TRACKNUMBER=%n" -T "GENRE=%m" -T "COMMENT=%e" %s -o %d
TOC извлечённого CD
Трек | Старт | Длительность | Начальный сектор | Конечный сектор
---------------------------------------------------------------------
1 | 0:00.00 | 5:57.43 | 0 | 26817
2 | 5:57.43 | 10:52.23 | 26818 | 75740
3 | 16:49.66 | 4:41.65 | 75741 | 96880
4 | 21:31.56 | 3:51.70 | 96881 | 114275
5 | 25:23.51 | 3:02.34 | 114276 | 127959
6 | 28:26.10 | 9:14.12 | 127960 | 169521
7 | 37:40.22 | 5:07.03 | 169522 | 192549
8 | 42:47.25 | 10:20.29 | 192550 | 239078
9 | 53:07.54 | 2:01.25 | 239079 | 248178
10 | 55:09.04 | 4:58.09 | 248179 | 270537
Характеристики диапазона извлечения и сообщения об ошибках
Выбранный диапазон
Имя файла D:\EAC\Milos Karadaglic - Aranjuez\M.Karadaglic - Aranjuez.wav
Пиковый уровень 100.0 %
Качество диапазона 100.0 %
CRC копии 8F4DD00A
Копирование... OK
Ошибок не произошло
AccurateRip: сводка
Трек 1 точность не определена (достоверность 9) [6D1AE85C], AccurateRip вернул [807CD4CC]
Трек 2 точность не определена (достоверность 9) [63C2577C], AccurateRip вернул [15FDB13F]
Трек 3 точность не определена (достоверность 9) [C9C044FA], AccurateRip вернул [F3CBD2D3]
Трек 4 точность не определена (достоверность 9) [D67F0CB9], AccurateRip вернул [B34035D0]
Трек 5 точность не определена (достоверность 9) [2E7473AB], AccurateRip вернул [61C1D086]
Трек 6 точность не определена (достоверность 9) [F49275F4], AccurateRip вернул [68E97858]
Трек 7 точность не определена (достоверность 9) [DCB93769], AccurateRip вернул [269A19B3]
Трек 8 точность не определена (достоверность 9) [0E4963E5], AccurateRip вернул [A37720B6]
Трек 9 точность не определена (достоверность 9) [3EC7F722], AccurateRip вернул [16F4CA18]
Трек 10 точность не определена (достоверность 9) [54D977E7], AccurateRip вернул [EC13FA74]
Ни один трек не прошёл проверки на точность
В вашей базе может быть иной вариант штамповки диска
Конец отчёта

Лог проверки качества


Скриншот спектра частот

[teatrix.ru].t18661.torrent 
Торрент: Зарегистрирован [ 2016-03-17 00:31 ] · 289E16847AE598567CF6383B8807A3FED41C5427

Скачать .torrent

Скачать

19 KB

Статус: проверено
Скачан: 1 раз
Размер: 221 MB
terms.php



Быстрый ответ

Имя:

      
Для отправки сообщений необходимо включить JavaScript
Показать сообщения:    

Текущее время: 08-Дек 19:05

Часовой пояс: UTC + 3


Вы можете начинать темы
Вы можете отвечать на сообщения
Вы не можете редактировать свои сообщения
Вы не можете удалять свои сообщения
Вы не можете голосовать в опросах
Вы не можете прикреплять файлы к сообщениям
Вы можете скачивать файлы