HOT&TOP / Эфир от 02.06.2014 / Европа Плюс ТВ [02.06.2014, Документальный, DVB]


Статистика раздачи [Обновить пиров]
Размер:  4.39 GB   |    Зарегистрирован:  8 месяцев 24 дня   |    Скачан:  0 раз

Полного источника не было: Никогда

 
   
 
 
 

[Цитировать]

HOT&TOP / Эфир от 02.06.2014 / Европа Плюс ТВ
Дата/Год выпуска: 02.06.2014
Страна: Россия
Жанр: Документальный, Музыка
Продолжительность: 01:53:42
Перевод: Не требуется
Телеканал: Европа Плюс ТВ
Описание: С 14 апреля телеканал Europa Plus TV запускает новый проект – программу HOT&TOP. Каждый будний день, с понедельника по пятницу, ведущие Ирена Понарошку, Чак и Илья Буц будут ставить любимые клипы, общаться со зрителями и звездными гостями, а также рассказывать самые горячие новости из мира музыки и шоу-бизнеса.
Все будет динамично и интерактивно: новости из твиттов звезд и фото из их инстаграмов, онлайн-голосования, конкурсы и розыгрыши призов от Europa Plus TV.
Релиз группы:
качество: DVB
формат: TS
Видео: 720х576@1024х576 (16:9), 25,000 кадров/сек, MPEG2, ~5000 Кбит/сек
Аудио: 48,0 КГц, MP2, 2 ch, ~192 Кбит/сек

MediaInfo

Общее
Идентификатор : 1 (0x1)
Полное имя : L:\Мои релизы\HOT&TOP Эфир от 02.06.2014 Европа Плюс ТВ.ts
Формат : MPEG-TS
Размер файла : 4,39 Гбайт
Продолжительность : 1 ч. 53 м.
Режим общего битрейта : Переменный
Общий поток : 5532 Кбит/сек
Видео
Идентификатор : 4096 (0x1000)
Идентификатор меню : 1 (0x1)
Формат : MPEG Video
Версия формата : Version 2
Профиль формата : Main@Main
Параметр BVOP формата : Да
Параметр матрицы формата : По умолчанию
Параметр GOP формата : M=3, N=15
Идентификатор кодека : 2
Продолжительность : 1 ч. 53 м.
Вид битрейта : Переменный
Битрейт : 5065 Кбит/сек
Максимальный битрейт : 5120 Кбит/сек
Ширина : 720 пикселей
Высота : 576 пикселей
Соотношение сторон : 16:9
Частота кадров : 25,000 кадров/сек
Стандарт вещания : PAL
Цветовое пространство : YUV
Субдискретизация насыщенности : 4:2:0
Битовая глубина : 8 бит
Тип развёртки : Прогрессивная
Порядок развёртки : Верхнее поле первое
Метод сжатия : С потерями
Бит/(Пиксели*Кадры) : 0.489
Размер потока : 4,02 Гбайт (92%)
Основные цвета : BT.601 PAL
Характеристики трансфера : BT.470 System B, BT.470 System G
Коэффициенты матрицы : BT.601
Аудио
Идентификатор : 4097 (0x1001)
Идентификатор меню : 1 (0x1)
Формат : MPEG Audio
Версия формата : Version 1
Профиль формата : Layer 2
Идентификатор кодека : 3
Продолжительность : 1 ч. 53 м.
Вид битрейта : Постоянный
Битрейт : 192 Кбит/сек
Каналы : 2 канала
Частота : 48,0 КГц
Метод сжатия : С потерями
Задержка видео : 15 мс.
Размер потока : 156 Мбайт (3%)
Язык : English

Скриншоты

[teatrix.ru].t18662.torrent 
Торрент: Зарегистрирован [ 2016-03-17 00:31 ] · B14D8B21259F98B29639C7C77FB0ABBED3979300

Скачать .torrent

Скачать

22 KB

Статус: проверено
Скачан: 0 раз
Размер: 4.39 GB
terms.php



Быстрый ответ

Имя:

      
Для отправки сообщений необходимо включить JavaScript
Показать сообщения:    

Текущее время: 10-Дек 02:09

Часовой пояс: UTC + 3


Вы можете начинать темы
Вы можете отвечать на сообщения
Вы не можете редактировать свои сообщения
Вы не можете удалять свои сообщения
Вы не можете голосовать в опросах
Вы не можете прикреплять файлы к сообщениям
Вы можете скачивать файлы