(Avantgarde) Фарадж Караев - nostalgia: Соната для двух исполнителей • Alla »Nostalgia« • »1791« • TRISTESSA I (Дж.Караев | А.Абдуллаев | Р.Абдуллаев) - 2006, FLAC (image+.cue) lossless


Статистика раздачи [Обновить пиров]
Размер:  489 MB   |    Зарегистрирован:  8 месяцев 18 дней   |    Скачан:  0 раз

Полного источника не было: Никогда

 
   
 
 
 

[Цитировать]

faradzh karaev
nostalgia
--- Жанр: Avantgarde
Страна-производитель диска: Россия
Год издания диска: 2006
Издатель (лейбл): Мелодия
Дата записи: 1982-91
Аудиокодек: FLAC
Тип рипа: image+.cue
Битрейт аудио: lossless
Продолжительность: 2:13'30''
Источник: собственный рип
Наличие сканов в содержимом раздачи: да
Треклист:

CD1

Соната для двух исполнителей
[1] I.
[2] II.
[3] III.
[4] IV.
Alla »Nostalgia«
[5] I.
[6] II.
[7] III.
[8] IV.

Лог создания рипа

Exact Audio Copy V1.0 beta 3 from 29. August 2011
EAC extraction logfile from 17. September 2012, 18:01
Караве, Абдуллаев / Faradzh Karaev - Nostalgia, CD 1
Used drive : PHILIPS CDRW1610A Adapter: 0 ID: 0
Read mode : Secure
Utilize accurate stream : Yes
Defeat audio cache : Yes
Make use of C2 pointers : No
Read offset correction : 733
Overread into Lead-In and Lead-Out : No
Fill up missing offset samples with silence : Yes
Delete leading and trailing silent blocks : No
Null samples used in CRC calculations : Yes
Used interface : Native Win32 interface for Win NT & 2000
Used output format : User Defined Encoder
Selected bitrate : 128 kBit/s
Quality : High
Add ID3 tag : No
Command line compressor : C:\Program Files\FLAC\flac.exe
Additional command line options : -T "COMMENT=rip by el coronel, rutracker.org" -V -8 %source%
TOC of the extracted CD
Track | Start | Length | Start sector | End sector
---------------------------------------------------------
1 | 0:00.00 | 10:31.29 | 0 | 47353
2 | 10:31.29 | 6:12.07 | 47354 | 75260
3 | 16:43.36 | 12:06.13 | 75261 | 129723
4 | 28:49.49 | 14:28.33 | 129724 | 194856
5 | 43:18.07 | 7:23.13 | 194857 | 228094
6 | 50:41.20 | 3:29.43 | 228095 | 243812
7 | 54:10.63 | 10:06.23 | 243813 | 289285
8 | 64:17.11 | 5:56.45 | 289286 | 316030
Range status and errors
Selected range
Filename G:\Music\Karayev Faradj - Nostalgia\Faradj Karayev - Nostalgia, CD 1.wav
Peak level 100.0 %
Extraction speed 6.0 X
Range quality 99.9 %
Test CRC 199AD79A
Copy CRC 199AD79A
Copy OK
No errors occurred
AccurateRip summary
Track 1 not present in database
Track 2 not present in database
Track 3 not present in database
Track 4 not present in database
Track 5 not present in database
Track 6 not present in database
Track 7 not present in database
Track 8 not present in database
None of the tracks are present in the AccurateRip database
End of status report
==== Log checksum 548D3686FEA69C4FA49E71D91BB897415825918DEFBE1D31D9C733A567ECA9E6 ====

Содержание индексной карты (.CUE)

REM GENRE Classical
REM DATE 2006
REM DISCID 57107508
REM COMMENT "ExactAudioCopy v1.0b3"
PERFORMER "Караве, Абдуллаев"
TITLE "Faradzh Karaev - Nostalgia, CD 1"
FILE "Faradj Karayev - Nostalgia, CD 1.flac" WAVE
TRACK 01 AUDIO
TITLE "Sonata for two players - I."
PERFORMER "Джахангир Караев, Акиф Абдуллаев"
INDEX 01 00:00:00
TRACK 02 AUDIO
TITLE "II."
PERFORMER "Джахангир Караев, Акиф Абдуллаев"
INDEX 01 10:31:29
TRACK 03 AUDIO
TITLE "III."
PERFORMER "Джахангир Караев, Акиф Абдуллаев"
INDEX 01 16:43:36
TRACK 04 AUDIO
TITLE "IV."
PERFORMER "Джахангир Караев, Акиф Абдуллаев"
INDEX 01 28:49:49
TRACK 05 AUDIO
TITLE "Alla 'Nostalgia' - I."
PERFORMER "Ансамбль БаКаРА - Рауф Абдуллаев"
INDEX 00 43:17:58
INDEX 01 43:18:07
TRACK 06 AUDIO
TITLE "II."
PERFORMER "Ансамбль БаКаРА - Рауф Абдуллаев"
INDEX 01 50:41:20
TRACK 07 AUDIO
TITLE "III."
PERFORMER "Ансамбль БаКаРА - Рауф Абдуллаев"
INDEX 01 54:10:63
TRACK 08 AUDIO
TITLE "IV."
PERFORMER "Ансамбль БаКаРА - Рауф Абдуллаев"
INDEX 01 64:17:11

CD2

»1791«
[1] Prelude
[2] Fugue
[3] Choral
[4] Postlude
[5] TRISTESSA I

Лог создания рипа

Exact Audio Copy V1.0 beta 3 from 29. August 2011
EAC extraction logfile from 17. September 2012, 18:35
Faradj Karayev / Nostalgia, CD 2
Used drive : PHILIPS CDRW1610A Adapter: 0 ID: 0
Read mode : Secure
Utilize accurate stream : Yes
Defeat audio cache : Yes
Make use of C2 pointers : No
Read offset correction : 733
Overread into Lead-In and Lead-Out : No
Fill up missing offset samples with silence : Yes
Delete leading and trailing silent blocks : No
Null samples used in CRC calculations : Yes
Used interface : Native Win32 interface for Win NT & 2000
Used output format : User Defined Encoder
Selected bitrate : 128 kBit/s
Quality : High
Add ID3 tag : No
Command line compressor : C:\Program Files\FLAC\flac.exe
Additional command line options : -T "COMMENT=rip by el coronel, rutracker.org" -V -8 %source%
TOC of the extracted CD
Track | Start | Length | Start sector | End sector
---------------------------------------------------------
1 | 0:00.00 | 6:46.53 | 0 | 30502
2 | 6:46.53 | 4:26.35 | 30503 | 50487
3 | 11:13.13 | 6:01.38 | 50488 | 77600
4 | 17:14.51 | 3:08.13 | 77601 | 91713
5 | 20:22.64 | 42:53.07 | 91714 | 284695
Range status and errors
Selected range
Filename G:\Music\Karayev Faradj - Nostalgia\Faradj Karayev - Nostalgia, CD 2.wav
Peak level 82.9 %
Extraction speed 5.6 X
Range quality 99.9 %
Test CRC 1DE6844B
Copy CRC 1DE6844B
Copy OK
No errors occurred
AccurateRip summary
Track 1 not present in database
Track 2 not present in database
Track 3 not present in database
Track 4 not present in database
Track 5 not present in database
None of the tracks are present in the AccurateRip database
End of status report
==== Log checksum 3B3E4986E9CA090604DA9C9E395CACEF41B42169559A1CEDC22570BDC2F15170 ====

Содержание индексной карты (.CUE)

REM GENRE Classical
REM DATE 2006
REM DISCID 330ED305
REM COMMENT ExactAudioCopy v1.0b3
PERFORMER "Faradj Karayev"
TITLE "Faradzh Karaev - Nostalgia, CD 2"
FILE "Faradj Karayev - Nostalgia, CD 2.flac" WAVE
TRACK 01 AUDIO
TITLE "'1791' Prelude"
PERFORMER "Камерный Оркестр оперной студии АзГосКонсерватории"
INDEX 01 00:00:00
TRACK 02 AUDIO
TITLE "Fugue"
PERFORMER "Камерный Оркестр оперной студии АзГосКонсерватории"
INDEX 01 06:46:53
TRACK 03 AUDIO
TITLE "Choral"
PERFORMER "Камерный Оркестр оперной студии АзГосКонсерватории"
INDEX 01 11:13:13
TRACK 04 AUDIO
TITLE "Postlude"
PERFORMER "Камерный Оркестр оперной студии АзГосКонсерватории"
INDEX 00 17:14:28
INDEX 01 17:14:51
TRACK 05 AUDIO
TITLE "Tristessa I"
PERFORMER "Азербайджанский Государственный Симфонический Оркестр"
INDEX 00 20:22:40
INDEX 01 20:22:64
Исполнители:
Джахангир Караев | Акиф Абдуллаев - фортепиано [CD1: 1-4]
БаКаРа-Ансамбль - Рауф Абдуллаев [CD1: 5-8]
Камерный Оркестр Оперной студии АзГосКонсерватории [CD2: 1-4]
Азербайджанский Государственный Симфонический Оркестр [CD2: 5]-
[teatrix.ru].t18667.torrent 
Торрент: Зарегистрирован [ 2016-03-17 00:31 ] · BCFDDF25CE066B870B5D37F9DFE44BDD1FC4CBF1

Скачать .torrent

Скачать

20 KB

Статус: проверено
Скачан: 0 раз
Размер: 489 MB
terms.php



Быстрый ответ

Имя:

      
Для отправки сообщений необходимо включить JavaScript
Показать сообщения:    

Текущее время: 04-Дек 11:15

Часовой пояс: UTC + 3


Вы можете начинать темы
Вы можете отвечать на сообщения
Вы не можете редактировать свои сообщения
Вы не можете удалять свои сообщения
Вы не можете голосовать в опросах
Вы не можете прикреплять файлы к сообщениям
Вы можете скачивать файлы