(Classical, Baroque) Johann Sebastian Bach - Secular Cantatas, Vol.3: Wedding Cantata, BWV202; Quodlibet, BWV524; Durchlauchtster Leopold, BWV173a; Schwingt freudig euch empor, BWV36c - Bach Collegium Japan, Suzuki - 2013, FLAC (image+.cue) lossless


Статистика раздачи [Обновить пиров]
Размер:  373 MB   |    Зарегистрирован:  10 месяцев 5 дней   |    Скачан:  0 раз

Полного источника не было: Никогда

 
   
 
 
 

[Цитировать]

Johann Sebastian Bach - Secular Cantatas, Vol.3: Wedding Cantata, BWV202; Quodlibet, BWV524; Durchlauchtster Leopold, BWV173a; Schwingt freudig euch empor, BWV36c - Bach Collegium Japan, M.Suzuki
Жанр: Classical, Baroque
Страна-производитель диска: Sweden
Год издания диска: 2013
Издатель (лейбл): BIS
Номер по каталогу: BIS-SACD-2041
Дата записи: 2012
Аудиокодек: FLAC
Тип рипа: image+.cue
Битрейт аудио: lossless
Продолжительность: 77:26
Источник: собственный рип
Наличие сканов в содержимом раздачи: да
Треклист:
Johann Sebastian Bach (1685-1750)
[1]-[8] Durchlauchtster Leopold, BWV 173a (Serenata)
[9]-[17] Weichet nur, betrübte Schatten, BWV 202 Wedding Cantata
[18]-[26] Schwingt freudig euch empor und dringt bis an die Sternen, BWV 36c
[27] Quodlibet, BWV 524 (Fragment)
Исполнители:
Bach Collegium Japan directed by Masaaki Suzuki
Joanne Lunn soprano
Hiroya Aoki counter-tenor
Makoto Sakurada tenor
Roderick Williams baritone
Masamitsu San’nomiya oboe & oboe d’amore
Natsumi Wakamatsu violin & viola d’amore

Лог создания рипа

Exact Audio Copy V1.0 beta 3 from 29. August 2011
EAC extraction logfile from 15. November 2013, 1:44
Bach Collegium Japan, Masaaki Suzuki / Bach - Secular Cantatas, Vol. 3
Used drive : HL-DT-STDVDRAM GSA-4083N Adapter: 1 ID: 0
Read mode : Secure
Utilize accurate stream : Yes
Defeat audio cache : Yes
Make use of C2 pointers : No
Read offset correction : 667
Overread into Lead-In and Lead-Out : No
Fill up missing offset samples with silence : Yes
Delete leading and trailing silent blocks : No
Null samples used in CRC calculations : Yes
Used interface : Native Win32 interface for Win NT & 2000
Used output format : User Defined Encoder
Selected bitrate : 896 kBit/s
Quality : High
Add ID3 tag : No
Command line compressor : C:\Program Files\Exact Audio Copy\Flac\flac.exe
Additional command line options : -V -8 %source%
TOC of the extracted CD
Track | Start | Length | Start sector | End sector
---------------------------------------------------------
1 | 0:00.00 | 0:40.58 | 0 | 3057
2 | 0:40.58 | 3:35.25 | 3058 | 19207
3 | 4:16.08 | 1:47.68 | 19208 | 27300
4 | 6:04.01 | 3:45.37 | 27301 | 44212
5 | 9:49.38 | 1:14.73 | 44213 | 49835
6 | 11:04.36 | 3:19.50 | 49836 | 64810
7 | 14:24.11 | 2:04.15 | 64811 | 74125
8 | 16:28.26 | 2:10.28 | 74126 | 83903
9 | 18:38.54 | 6:03.62 | 83904 | 111190
10 | 24:42.41 | 0:28.48 | 111191 | 113338
11 | 25:11.14 | 3:05.11 | 113339 | 127224
12 | 28:16.25 | 0:41.25 | 127225 | 130324
13 | 28:57.50 | 2:45.12 | 130325 | 142711
14 | 31:42.62 | 0:43.01 | 142712 | 145937
15 | 32:25.63 | 3:56.21 | 145938 | 163658
16 | 36:22.09 | 0:27.61 | 163659 | 165744
17 | 36:49.70 | 1:31.27 | 165745 | 172596
18 | 38:21.22 | 4:02.50 | 172597 | 190796
19 | 42:23.72 | 0:58.23 | 190797 | 195169
20 | 43:22.20 | 5:49.28 | 195170 | 221372
21 | 49:11.48 | 0:48.27 | 221373 | 224999
22 | 50:00.00 | 2:46.54 | 225000 | 237503
23 | 52:46.54 | 0:38.61 | 237504 | 240414
24 | 53:25.40 | 8:51.35 | 240415 | 280274
25 | 62:17.00 | 0:22.08 | 280275 | 281932
26 | 62:39.08 | 3:27.70 | 281933 | 297527
27 | 66:07.03 | 11:19.25 | 297528 | 348477
Range status and errors
Selected range
Filename J:\New Music\BIS-SACD-2041 - Bach - Secular Cantatas, Vol. 3 - Suzuki\Bach - Secular Cantatas, Vol. 3.wav
Peak level 99.9 %
Extraction speed 2.6 X
Range quality 99.9 %
Test CRC C4178BD5
Copy CRC C4178BD5
Copy OK
No errors occurred
End of status report
==== Log checksum 8FAE19ACBE451CEE967997AF81E0A76B1A3C521D334FED96BFA78C7E61F19558 ====
[teatrix.ru].t18668.torrent 
Торрент: Зарегистрирован [ 2016-03-17 00:31 ] · 984649557DEB73F90FBD944EF935EE71E4811AFC

Скачать .torrent

Скачать

30 KB

Статус: проверено
Скачан: 0 раз
Размер: 373 MB
terms.php



Быстрый ответ

Имя:

      
Для отправки сообщений необходимо включить JavaScript
Показать сообщения:    

Текущее время: 22-Янв 04:42

Часовой пояс: UTC + 3


Вы можете начинать темы
Вы можете отвечать на сообщения
Вы не можете редактировать свои сообщения
Вы не можете удалять свои сообщения
Вы не можете голосовать в опросах
Вы не можете прикреплять файлы к сообщениям
Вы можете скачивать файлы