(Classical) Johannes Brahms - The Piano Concertos - Stephen Hough; Mozarteumorchester Salzburg, Mark Wigglesworth - 2CD - 2013, FLAC (image+.cue) lossless


Статистика раздачи [Обновить пиров]
Размер:  339 MB   |    Зарегистрирован:  8 месяцев 25 дней   |    Скачан:  1 раз

Полного источника не было: 6 часов

 
   
 
 
 

[Цитировать]

Johannes Brahms - The Piano Concertos - Stephen Hough; Mozarteumorchester Salzburg, Mark Wigglesworth
Жанр: Classical
Страна-производитель диска: UK
Год издания диска: 2013
Издатель (лейбл): Hyperion
Номер по каталогу: CDA67961
Дата записи: 2013
Аудиокодек: FLAC
Тип рипа: image+.cue
Битрейт аудио: lossless
Продолжительность: 97:59
Источник: собственный рип
Наличие сканов в содержимом раздачи: да
Треклист:
Johannes Brahms (1833-1897)
CD1
[1]-[3] Piano Concerto No.1 in D minor, Op.15
CD2
[1]-[4] Piano Concerto No.2 in B flat major, Op.83
Исполнители:
Stephen Hough piano
Mozarteumorchester Salzburg
Mark Wigglesworth
conductor

Лог создания рипа: CD1

Exact Audio Copy V1.0 beta 3 from 29. August 2011
EAC extraction logfile from 18. May 2014, 11:54
Stephen Hough; Mozarteumorchester Salzburg, Mark Wigglesworth / Brahms - The Piano Concertos - CD1
Used drive : HL-DT-STDVDRAM GSA-4083N Adapter: 1 ID: 0
Read mode : Secure
Utilize accurate stream : Yes
Defeat audio cache : Yes
Make use of C2 pointers : No
Read offset correction : 667
Overread into Lead-In and Lead-Out : No
Fill up missing offset samples with silence : Yes
Delete leading and trailing silent blocks : No
Null samples used in CRC calculations : Yes
Used interface : Native Win32 interface for Win NT & 2000
Used output format : User Defined Encoder
Selected bitrate : 896 kBit/s
Quality : High
Add ID3 tag : No
Command line compressor : C:\Program Files\Exact Audio Copy\Flac\flac.exe
Additional command line options : -V -8 %source%
TOC of the extracted CD
Track | Start | Length | Start sector | End sector
---------------------------------------------------------
1 | 0:00.00 | 22:53.71 | 0 | 103045
2 | 22:53.71 | 13:28.26 | 103046 | 163671
3 | 36:22.22 | 12:41.07 | 163672 | 220753
Range status and errors
Selected range
Filename J:\New Music\CDA67961 - Brahms - The Piano Concertos\Brahms - The Piano Concertos - CD1.wav
Peak level 100.0 %
Extraction speed 2.7 X
Range quality 100.0 %
Test CRC 03476714
Copy CRC 03476714
Copy OK
No errors occurred
AccurateRip summary
Track 1 accurately ripped (confidence 4) [D6C3EFFA] (AR v2)
Track 2 accurately ripped (confidence 4) [096D053B] (AR v2)
Track 3 accurately ripped (confidence 4) [554B8738] (AR v2)
All tracks accurately ripped
End of status report
==== Log checksum DEC272A9D234DAACB9CD1F05048BA11F49D9B2579FC01DF4BA8E63FE2BF33606 ====

Лог создания рипа: CD2

Exact Audio Copy V1.0 beta 3 from 29. August 2011
EAC extraction logfile from 18. May 2014, 12:35
Stephen Hough; Mozarteumorchester Salzburg, Mark Wigglesworth / Brahms - The Piano Concertos - CD2
Used drive : HL-DT-STDVDRAM GSA-4083N Adapter: 1 ID: 0
Read mode : Secure
Utilize accurate stream : Yes
Defeat audio cache : Yes
Make use of C2 pointers : No
Read offset correction : 667
Overread into Lead-In and Lead-Out : No
Fill up missing offset samples with silence : Yes
Delete leading and trailing silent blocks : No
Null samples used in CRC calculations : Yes
Used interface : Native Win32 interface for Win NT & 2000
Used output format : User Defined Encoder
Selected bitrate : 896 kBit/s
Quality : High
Add ID3 tag : No
Command line compressor : C:\Program Files\Exact Audio Copy\Flac\flac.exe
Additional command line options : -V -8 %source%
TOC of the extracted CD
Track | Start | Length | Start sector | End sector
---------------------------------------------------------
1 | 0:00.00 | 18:19.48 | 0 | 82472
2 | 18:19.48 | 9:10.34 | 82473 | 123756
3 | 27:30.07 | 11:52.43 | 123757 | 177199
4 | 39:22.50 | 9:30.16 | 177200 | 219965
Range status and errors
Selected range
Filename J:\New Music\CDA67961 - Brahms - The Piano Concertos\Brahms - The Piano Concertos - CD2.wav
Peak level 97.7 %
Extraction speed 2.7 X
Range quality 99.9 %
Test CRC 9BEF6BD2
Copy CRC 9BEF6BD2
Copy OK
No errors occurred
AccurateRip summary
Track 1 accurately ripped (confidence 4) [1642DDFF] (AR v2)
Track 2 accurately ripped (confidence 4) [662B8D6F] (AR v2)
Track 3 accurately ripped (confidence 4) [C74152B7] (AR v2)
Track 4 accurately ripped (confidence 4) [D98C2321] (AR v2)
All tracks accurately ripped
End of status report
==== Log checksum 0FA91EFEC2F21606E24AFF0AE947C2C7CEB100205ED186C4FDCB03B06AB6E4B2 ====
[teatrix.ru].t18669.torrent 
Торрент: Зарегистрирован [ 2016-03-17 00:31 ] · A653F769D3098EE8A1C42A2532A9FA74A54FA988

Скачать .torrent

Скачать

28 KB

Статус: проверено
Скачан: 1 раз
Размер: 339 MB
terms.php



Быстрый ответ

Имя:

      
Для отправки сообщений необходимо включить JavaScript
Показать сообщения:    

Текущее время: 11-Дек 09:08

Часовой пояс: UTC + 3


Вы можете начинать темы
Вы можете отвечать на сообщения
Вы не можете редактировать свои сообщения
Вы не можете удалять свои сообщения
Вы не можете голосовать в опросах
Вы не можете прикреплять файлы к сообщениям
Вы можете скачивать файлы