(Classical) Handel - L'Allegro, il Penserioso ed il Moderato (Peter Neumann, Collegium Cartusianum, Keohane, Doyle, Hulett, Wolf, Kammerchor) - 2013, FLAC (tracks+.cue) lossless


Статистика раздачи [Обновить пиров]
Размер:  602 MB   |    Зарегистрирован:  8 месяцев 20 дней   |    Скачан:  0 раз

Полного источника не было: Никогда

 
   
 
 
 

[Цитировать]

Handel - L'Allegro, il Penserioso ed il Moderato (Peter Neumann, Collegium Cartusianum, Keohane, Doyle, Hulett, Wolf, Kammerchor)
Жанр: Classical
Год издания диска: 2013
Издатель (лейбл): Carus
Номер по каталогу: 83.395
Аудиокодек: FLAC
Тип рипа: tracks+.cue
Битрейт аудио: lossless
Продолжительность: CD1:60'06, CD2:59'12
Источник: скачано из сети
Наличие сканов в содержимом раздачи: да
Исполнители:
Maria Keohane,
Julia Doyle,
Benjamin Hulett,
Andreas Wolf,
Kölner Kammerchor,
Collegium Cartusianum
Peter Neumann

Треклист

CD1
1. Ouverture. Concerto grosso op.6,1 (3:42)
2. 1. L'Allegro. Accompagnato (Tenor) (2:30)
3. 2. Il Pensieroso. Accompagnato (Sopran) (1:00)
4. 3. L'Allegro. Aria (Sopran) (1:38)
5. 4. Il Pensieroso. Aria (Sopran) (3:01)
6. 5. L'Allegro. Aria (Tenor) (1:14)
7. 6. Chorus (1:08)
8. 7. Aria (Tenor) (1:16)
9. 8. Chorus (1:07)
10. 9. Il Pensieroso. Accompagnato (Sopran) (0:57)
11. 10. Aria (Sopran) (1:30)
12. 11. Accompagnato und Aria (Sopran) (3:01)
13. 12. Chorus (1:16)
14. 13. L'Allegro. Rezitativ (Tenor) (0:25)
15. 14. Rezitativ (Sopran) (0:09)
16. 15. L'Allegro. Aria (Sopran) (4:09)
17. 16. Il Pensieroso. Accompagnato (Sopran) (0:53)
18. 17. Aria (Sopran) (12:53)
19. 18. L'Allegro. Rezitativ (Bass) (0:10)
20. 19. Aria (Bass) (2:16)
21. 20. Il Pensieroso. Aria (Sopran) (3:05)
22. 21. Aria (Sopran) (3:26)
23. 22. L'Allegro. Rezitativ (Tenor) (0:11)
24. 23. Siciliana (Tenor) (1:49)
25. 24. Aria (Sopran) (2:08)
26. 25. Accompagnato (Bass) (1:17)
27. 26. Arie (Sopran) (1:22)
28. 27. Chorus (2:18)
CD2
1. 28. Il Pensieroso. Accompagnato (Sopran) (1:22)
2. 29. Aria (Sopran) (4:36)
3. 30. Aria (Sopran) (6:39)
4. 31. Rezitativ (Sopran) (0:23)
5. 32. L'Allegro. Solo (Bass) und Chorus (3:05)
6. 33. Aria (Tenor) (2:16)
7. 34. Il Pensieroso. Accompagnato (Sopran) (0:40)
8. 35. Aria (Sopran) (3:11)
9. 36. L'Allegro. Aria (Tenor) (1:58)
10. 37. Aria (Sopran) (2:25)
11. 38. Aria (Sopran) (2:44)
12. 39. Aria (Tenor) (1:42)
13. 40. Chorus (1:36)
14. 41. Il Pensieroso. Rezitativ (Sopran) (0:41)
15. 42. Chorus und Sopran (1:41)
16. 44. Solo (Sopran) und Chorus (4:15)
17. 45. Il Moderato. Accompagnato (Bass) (0:25)
18. 46. Aria (Bass) (3:01)
19. 47. Accompagnato (Bass) (0:56)
20. 48. Chorus (1:35)
21. 49. Aria (Sopran) (1:46)
22. 50. Rezitativ (Tenor) (0:44)
23. 51. Aria (Tenor) (2:07)
24. 52. Duet (Sopran und Tenor) (5:52)
25. 53. Chorus (3:18)

LOG CD1:

Exact Audio Copy V1.0 beta 3 from 29. August 2011
EAC extraction logfile from 26. January 2014, 18:00
Collegium Cartusianum - Kölner Kammerchor - Maria Keohane, Julia Doyle, Benjamin Hulett, Andreas Wolf - Peter Neumann / L'allegro, il Pensieroso ed il Moderato - Teil 1
Used drive : SlimtypeDVD A DS8A5SH Adapter: 0 ID: 1
Read mode : Secure
Utilize accurate stream : Yes
Defeat audio cache : Yes
Make use of C2 pointers : No
Read offset correction : 6
Overread into Lead-In and Lead-Out : No
Fill up missing offset samples with silence : Yes
Delete leading and trailing silent blocks : No
Null samples used in CRC calculations : Yes
Used interface : Native Win32 interface for Win NT & 2000
Gap handling : Appended to previous track
Used output format : User Defined Encoder
Selected bitrate : 32 kBit/s
Quality : High
Add ID3 tag : No
Command line compressor : C:\Program Files\Exact Audio Copy\Flac\flac.exe
Additional command line options : -8 -V -T "ARTIST=%artist%" -T "TITLE=%title%" -T "ALBUM=%albumtitle%" -T "DATE=%year%" -T "TRACKNUMBER=%tracknr%" -T "GENRE=%genre%" -T "PERFORMER=%albuminterpret%" -T "COMPOSER=%composer%" %haslyrics%--tag-from-file=LYRICS="%lyricsfile%"%haslyrics% -T "ALBUMARTIST=%albumartist%" -T "DISCNUMBER=%cdnumber%" -T "TOTALDISCS=%totalcds%" -T "TOTALTRACKS=%numtracks%" -T "COMMENT=%comment%" %source% -o %dest%
TOC of the extracted CD
Track | Start | Length | Start sector | End sector
---------------------------------------------------------
1 | 0:00.00 | 3:42.35 | 0 | 16684
2 | 3:42.35 | 2:30.02 | 16685 | 27936
3 | 6:12.37 | 1:00.26 | 27937 | 32462
4 | 7:12.63 | 1:38.48 | 32463 | 39860
5 | 8:51.36 | 3:01.20 | 39861 | 53455
6 | 11:52.56 | 1:14.45 | 53456 | 59050
7 | 13:07.26 | 1:08.43 | 59051 | 64193
8 | 14:15.69 | 1:16.43 | 64194 | 69936
9 | 15:32.37 | 1:07.61 | 69937 | 75022
10 | 16:40.23 | 0:57.44 | 75023 | 79341
11 | 17:37.67 | 1:30.49 | 79342 | 86140
12 | 19:08.41 | 3:01.35 | 86141 | 99750
13 | 22:10.01 | 1:16.56 | 99751 | 105506
14 | 23:26.57 | 0:25.19 | 105507 | 107400
15 | 23:52.01 | 0:09.54 | 107401 | 108129
16 | 24:01.55 | 4:09.16 | 108130 | 126820
17 | 28:10.71 | 0:53.49 | 126821 | 130844
18 | 29:04.45 | 12:53.55 | 130845 | 188874
19 | 41:58.25 | 0:10.13 | 188875 | 189637
20 | 42:08.38 | 2:16.46 | 189638 | 199883
21 | 44:25.09 | 3:05.02 | 199884 | 213760
22 | 47:30.11 | 3:26.12 | 213761 | 229222
23 | 50:56.23 | 0:11.33 | 229223 | 230080
24 | 51:07.56 | 1:49.06 | 230081 | 238261
25 | 52:56.62 | 2:08.09 | 238262 | 247870
26 | 55:04.71 | 1:17.67 | 247871 | 253712
27 | 56:22.63 | 1:22.54 | 253713 | 259916
28 | 57:45.42 | 2:18.52 | 259917 | 270318
Track 1
Filename C:\Users\BIANCA\Desktop\file scuola\01 Ouvertüre. Concerto grosso op.6,1.wav
Pre-gap length 0:00:02.00
Peak level 38.5 %
Extraction speed 1.0 X
Track quality 100.0 %
Test CRC 0BF0E285
Copy CRC 0BF0E285
Track not present in AccurateRip database
Copy OK
Track 2
Filename C:\Users\BIANCA\Desktop\file scuola\02 1. L'Allegro. Accompagnato (Tenor).wav
Peak level 32.3 %
Extraction speed 0.9 X
Track quality 99.9 %
Test CRC AECC0E6B
Copy CRC AECC0E6B
Track not present in AccurateRip database
Copy OK
Track 3
Filename C:\Users\BIANCA\Desktop\file scuola\03 2. Il Pensieroso. Accompagnato (Sopran).wav
Peak level 58.1 %
Extraction speed 0.8 X
Track quality 100.0 %
Test CRC E6EB9A1A
Copy CRC E6EB9A1A
Track not present in AccurateRip database
Copy OK
Track 4
Filename C:\Users\BIANCA\Desktop\file scuola\04 3. L'Allegro. Aria (Sopran).wav
Peak level 72.1 %
Extraction speed 1.0 X
Track quality 100.0 %
Test CRC 53329A2E
Copy CRC 53329A2E
Track not present in AccurateRip database
Copy OK
Track 5
Filename C:\Users\BIANCA\Desktop\file scuola\05 4. Il Pensieroso. Aria (Sopran).wav
Peak level 52.5 %
Extraction speed 1.1 X
Track quality 99.9 %
Test CRC 885A5DD5
Copy CRC 885A5DD5
Track not present in AccurateRip database
Copy OK
Track 6
Filename C:\Users\BIANCA\Desktop\file scuola\06 5. L'Allegro. Aria (Tenor).wav
Peak level 39.8 %
Extraction speed 1.0 X
Track quality 100.0 %
Test CRC C8BF8C09
Copy CRC C8BF8C09
Track not present in AccurateRip database
Copy OK
Track 7
Filename C:\Users\BIANCA\Desktop\file scuola\07 6. L'Allegro. Chorus.wav
Peak level 52.2 %
Extraction speed 1.0 X
Track quality 100.0 %
Test CRC 8D811930
Copy CRC 8D811930
Track not present in AccurateRip database
Copy OK
Track 8
Filename C:\Users\BIANCA\Desktop\file scuola\08 7. L'Allegro. Aria (Tenor).wav
Peak level 41.9 %
Extraction speed 1.1 X
Track quality 100.0 %
Test CRC 447B9BB0
Copy CRC 447B9BB0
Track not present in AccurateRip database
Copy OK
Track 9
Filename C:\Users\BIANCA\Desktop\file scuola\09 8. L'Allegro. Chorus.wav
Peak level 66.1 %
Extraction speed 1.0 X
Track quality 100.0 %
Test CRC E3D39670
Copy CRC E3D39670
Track not present in AccurateRip database
Copy OK
Track 10
Filename C:\Users\BIANCA\Desktop\file scuola\10 9. Il Pensieroso. Accompagnato (Sopran).wav
Peak level 57.4 %
Extraction speed 1.0 X
Track quality 100.0 %
Test CRC 1336DE48
Copy CRC 1336DE48
Track not present in AccurateRip database
Copy OK
Track 11
Filename C:\Users\BIANCA\Desktop\file scuola\11 10. Il Pensieroso. Aria (Sopran).wav
Peak level 69.1 %
Extraction speed 0.9 X
Track quality 99.8 %
Test CRC 5F82004C
Copy CRC 5F82004C
Track not present in AccurateRip database
Copy OK
Track 12
Filename C:\Users\BIANCA\Desktop\file scuola\12 11. Il Pensieroso. Accompagnato und Aria (Sopran).wav
Peak level 66.0 %
Extraction speed 1.5 X
Track quality 100.0 %
Test CRC 7A58EAB1
Copy CRC 7A58EAB1
Track not present in AccurateRip database
Copy OK
Track 13
Filename C:\Users\BIANCA\Desktop\file scuola\13 12. Il Pensieroso. Chorus.wav
Peak level 36.4 %
Extraction speed 1.2 X
Track quality 100.0 %
Test CRC 4AF6D7BB
Copy CRC 4AF6D7BB
Track not present in AccurateRip database
Copy OK
Track 14
Filename C:\Users\BIANCA\Desktop\file scuola\14 13. L'Allegro. Rezitativ (Tenor).wav
Peak level 46.4 %
Extraction speed 0.4 X
Track quality 99.5 %
Test CRC A6C0E034
Copy CRC A6C0E034
Track not present in AccurateRip database
Copy OK
Track 15
Filename C:\Users\BIANCA\Desktop\file scuola\15 14. L'Allegro. Rezitativ (Sopran).wav
Peak level 40.5 %
Extraction speed 0.3 X
Track quality 100.0 %
Test CRC 9E864008
Copy CRC 9E864008
Track not present in AccurateRip database
Copy OK
Track 16
Filename C:\Users\BIANCA\Desktop\file scuola\16 15. L'Allegro. Aria (Sopran).wav
Peak level 61.4 %
Extraction speed 1.7 X
Track quality 100.0 %
Test CRC B33F12D4
Copy CRC B33F12D4
Track not present in AccurateRip database
Copy OK
Track 17
Filename C:\Users\BIANCA\Desktop\file scuola\17 16. Il Pensieroso. Accompagnato (Sopran).wav
Peak level 30.9 %
Extraction speed 1.1 X
Track quality 100.0 %
Test CRC 6033943B
Copy CRC 6033943B
Track not present in AccurateRip database
Copy OK
Track 18
Filename C:\Users\BIANCA\Desktop\file scuola\18 17. Il Pensieroso. Aria (Sopran).wav
Peak level 70.3 %
Extraction speed 2.0 X
Track quality 100.0 %
Test CRC D09C9717
Copy CRC D09C9717
Track not present in AccurateRip database
Copy OK
Track 19
Filename C:\Users\BIANCA\Desktop\file scuola\19 18. L'Allegro. Rezitativ (Bass).wav
Peak level 24.1 %
Extraction speed 0.4 X
Track quality 100.0 %
Test CRC 59759A71
Copy CRC 59759A71
Track not present in AccurateRip database
Copy OK
Track 20
Filename C:\Users\BIANCA\Desktop\file scuola\20 19. L'Allegro. Aria (Bass).wav
Peak level 45.7 %
Extraction speed 1.8 X
Track quality 100.0 %
Test CRC 9816BF59
Copy CRC 9816BF59
Track not present in AccurateRip database
Copy OK
Track 21
Filename C:\Users\BIANCA\Desktop\file scuola\21 20. Il Pensieroso. Aria (Sopran).wav
Peak level 46.8 %
Extraction speed 1.9 X
Track quality 100.0 %
Test CRC 692048C4
Copy CRC 692048C4
Track not present in AccurateRip database
Copy OK
Track 22
Filename C:\Users\BIANCA\Desktop\file scuola\22 21. Il Pensieroso. Aria (Sopran).wav
Peak level 50.9 %
Extraction speed 1.7 X
Track quality 99.9 %
Test CRC CEF574E4
Copy CRC CEF574E4
Track not present in AccurateRip database
Copy OK
Track 23
Filename C:\Users\BIANCA\Desktop\file scuola\23 22. L'Allegro. Rezitativ (Tenor).wav
Peak level 38.2 %
Extraction speed 0.5 X
Track quality 100.0 %
Test CRC B640091E
Copy CRC B640091E
Track not present in AccurateRip database
Copy OK
Track 24
Filename C:\Users\BIANCA\Desktop\file scuola\24 23. L'Allegro. Siciliana (Tenor).wav
Peak level 33.0 %
Extraction speed 1.8 X
Track quality 100.0 %
Test CRC FF52D3DB
Copy CRC FF52D3DB
Track not present in AccurateRip database
Copy OK
Track 25
Filename C:\Users\BIANCA\Desktop\file scuola\25 24. L'Allegro. Aria (Sopran).wav
Peak level 59.5 %
Extraction speed 1.5 X
Track quality 99.9 %
Test CRC 570B43A9
Copy CRC 570B43A9
Track not present in AccurateRip database
Copy OK
Track 26
Filename C:\Users\BIANCA\Desktop\file scuola\26 25. L'Allegro. Accompagnato (Bass).wav
Peak level 41.6 %
Extraction speed 1.7 X
Track quality 100.0 %
Test CRC B50A23C8
Copy CRC B50A23C8
Track not present in AccurateRip database
Copy OK
Track 27
Filename C:\Users\BIANCA\Desktop\file scuola\27 26. L'Allegro. Arie (Sopran).wav
Peak level 97.6 %
Extraction speed 1.7 X
Track quality 100.0 %
Test CRC CFA32067
Copy CRC CFA32067
Track not present in AccurateRip database
Copy OK
Track 28
Filename C:\Users\BIANCA\Desktop\file scuola\28 27. L'Allegro. Chorus.wav
Peak level 55.4 %
Extraction speed 2.0 X
Track quality 100.0 %
Test CRC 3BF8F7E1
Copy CRC 3BF8F7E1
Track not present in AccurateRip database
Copy OK
None of the tracks are present in the AccurateRip database
No errors occurred
End of status report
==== Log checksum 495A145F25EDABC9B50842C1DA76BEF83815737E7F78D46D964B3348182BEA18 ====

LOG CD2:

Exact Audio Copy V1.0 beta 3 from 29. August 2011
EAC extraction logfile from 27. January 2014, 9:42
Collegium Cartusianum - Kölner Kammerchor - Maria Keohane, Julia Doyle, Benjamin Hulett, Andreas Wolf - Peter Neumann / L'allegro, il Pensieroso ed il Moderato - Teil 2 und Teil 3
Used drive : SlimtypeDVD A DS8A5SH Adapter: 0 ID: 1
Read mode : Secure
Utilize accurate stream : Yes
Defeat audio cache : Yes
Make use of C2 pointers : No
Read offset correction : 6
Overread into Lead-In and Lead-Out : No
Fill up missing offset samples with silence : Yes
Delete leading and trailing silent blocks : No
Null samples used in CRC calculations : Yes
Used interface : Native Win32 interface for Win NT & 2000
Gap handling : Appended to previous track
Used output format : User Defined Encoder
Selected bitrate : 32 kBit/s
Quality : High
Add ID3 tag : No
Command line compressor : C:\Program Files\Exact Audio Copy\Flac\flac.exe
Additional command line options : -8 -V -T "ARTIST=%artist%" -T "TITLE=%title%" -T "ALBUM=%albumtitle%" -T "DATE=%year%" -T "TRACKNUMBER=%tracknr%" -T "GENRE=%genre%" -T "PERFORMER=%albuminterpret%" -T "COMPOSER=%composer%" %haslyrics%--tag-from-file=LYRICS="%lyricsfile%"%haslyrics% -T "ALBUMARTIST=%albumartist%" -T "DISCNUMBER=%cdnumber%" -T "TOTALDISCS=%totalcds%" -T "TOTALTRACKS=%numtracks%" -T "COMMENT=%comment%" %source% -o %dest%
TOC of the extracted CD
Track | Start | Length | Start sector | End sector
---------------------------------------------------------
1 | 0:00.00 | 1:22.24 | 0 | 6173
2 | 1:22.24 | 4:36.24 | 6174 | 26897
3 | 5:58.48 | 6:39.62 | 26898 | 56884
4 | 12:38.35 | 0:23.47 | 56885 | 58656
5 | 13:02.07 | 3:05.43 | 58657 | 72574
6 | 16:07.50 | 2:16.13 | 72575 | 82787
7 | 18:23.63 | 0:40.08 | 82788 | 85795
8 | 19:03.71 | 3:11.25 | 85796 | 100145
9 | 22:15.21 | 1:58.72 | 100146 | 109067
10 | 24:14.18 | 2:25.36 | 109068 | 119978
11 | 26:39.54 | 2:44.35 | 119979 | 132313
12 | 29:24.14 | 1:42.31 | 132314 | 139994
13 | 31:06.45 | 1:36.33 | 139995 | 147227
14 | 32:43.03 | 0:41.42 | 147228 | 150344
15 | 33:24.45 | 1:41.45 | 150345 | 157964
16 | 35:06.15 | 4:15.36 | 157965 | 177125
17 | 39:21.51 | 0:25.42 | 177126 | 179042
18 | 39:47.18 | 3:01.70 | 179043 | 192687
19 | 42:49.13 | 0:56.27 | 192688 | 196914
20 | 43:45.40 | 1:35.53 | 196915 | 204092
21 | 45:21.18 | 1:46.12 | 204093 | 212054
22 | 47:07.30 | 0:44.59 | 212055 | 215413
23 | 47:52.14 | 2:07.27 | 215414 | 224965
24 | 49:59.41 | 5:52.38 | 224966 | 251403
25 | 55:52.04 | 3:18.28 | 251404 | 266281
Track 1
Filename C:\Users\BIANCA\Desktop\file scuola\01 28. Il Pensieroso. Accompagnato (Sopran).wav
Pre-gap length 0:00:02.00
Peak level 42.7 %
Extraction speed 0.6 X
Track quality 99.8 %
Test CRC 28DA7D30
Copy CRC 28DA7D30
Track not present in AccurateRip database
Copy OK
Track 2
Filename C:\Users\BIANCA\Desktop\file scuola\02 29. Il Pensieroso. Aria (Sopran).wav
Peak level 71.5 %
Extraction speed 1.1 X
Track quality 100.0 %
Test CRC D370E35C
Copy CRC D370E35C
Track not present in AccurateRip database
Copy OK
Track 3
Filename C:\Users\BIANCA\Desktop\file scuola\03 30. Il Pensieroso. Aria (Sopran).wav
Peak level 57.2 %
Extraction speed 1.4 X
Track quality 100.0 %
Test CRC 70BBE024
Copy CRC 70BBE024
Track not present in AccurateRip database
Copy OK
Track 4
Filename C:\Users\BIANCA\Desktop\file scuola\04 31. Il Pensieroso. Rezitativ (Sopran).wav
Peak level 21.8 %
Extraction speed 0.6 X
Track quality 100.0 %
Test CRC 45483563
Copy CRC 45483563
Track not present in AccurateRip database
Copy OK
Track 5
Filename C:\Users\BIANCA\Desktop\file scuola\05 32. L'Allegro. Solo (Bass) und Chorus.wav
Peak level 88.4 %
Extraction speed 1.2 X
Track quality 99.9 %
Test CRC 6725398D
Copy CRC 6725398D
Track not present in AccurateRip database
Copy OK
Track 6
Filename C:\Users\BIANCA\Desktop\file scuola\06 33. L'Allegro. Aria (Tenor).wav
Peak level 50.7 %
Extraction speed 1.3 X
Track quality 100.0 %
Test CRC 097AAABD
Copy CRC 097AAABD
Track not present in AccurateRip database
Copy OK
Track 7
Filename C:\Users\BIANCA\Desktop\file scuola\07 34. Il Pensieroso. Accompagnato (Sopran).wav
Peak level 33.9 %
Extraction speed 0.9 X
Track quality 100.0 %
Test CRC 2D7ECDE7
Copy CRC 2D7ECDE7
Track not present in AccurateRip database
Copy OK
Track 8
Filename C:\Users\BIANCA\Desktop\file scuola\08 35. Il Pensieroso. Aria (Sopran).wav
Peak level 30.4 %
Extraction speed 1.5 X
Track quality 100.0 %
Test CRC 0FB47311
Copy CRC 0FB47311
Track not present in AccurateRip database
Copy OK
Track 9
Filename C:\Users\BIANCA\Desktop\file scuola\09 36. L'Allegro. Aria (Tenor).wav
Peak level 43.9 %
Extraction speed 1.4 X
Track quality 100.0 %
Test CRC 7F40CD0A
Copy CRC 7F40CD0A
Track not present in AccurateRip database
Copy OK
Track 10
Filename C:\Users\BIANCA\Desktop\file scuola\10 37. L'Allegro. Aria (Sopran).wav
Peak level 48.2 %
Extraction speed 1.5 X
Track quality 100.0 %
Test CRC 47F1AC4E
Copy CRC 47F1AC4E
Track not present in AccurateRip database
Copy OK
Track 11
Filename C:\Users\BIANCA\Desktop\file scuola\11 38. L'Allegro. Aria (Sopran).wav
Peak level 80.5 %
Extraction speed 1.6 X
Track quality 100.0 %
Test CRC 20EC328C
Copy CRC 20EC328C
Track not present in AccurateRip database
Copy OK
Track 12
Filename C:\Users\BIANCA\Desktop\file scuola\12 39. L'Allegro. Aria (Tenor).wav
Peak level 50.7 %
Extraction speed 1.4 X
Track quality 100.0 %
Test CRC FE6F138C
Copy CRC FE6F138C
Track not present in AccurateRip database
Copy OK
Track 13
Filename C:\Users\BIANCA\Desktop\file scuola\13 40. L'Allegro. Chorus.wav
Peak level 80.0 %
Extraction speed 1.4 X
Track quality 100.0 %
Test CRC 8AAC7213
Copy CRC 8AAC7213
Track not present in AccurateRip database
Copy OK
Track 14
Filename C:\Users\BIANCA\Desktop\file scuola\14 41. Il Pensieroso. Rezitativ (Sopran).wav
Peak level 38.4 %
Extraction speed 1.1 X
Track quality 100.0 %
Test CRC B7AFDD4D
Copy CRC B7AFDD4D
Track not present in AccurateRip database
Copy OK
Track 15
Filename C:\Users\BIANCA\Desktop\file scuola\15 42. Il Pensieroso. Chorus und Sopran.wav
Peak level 72.9 %
Extraction speed 1.2 X
Track quality 99.8 %
Test CRC ED5BE00C
Copy CRC ED5BE00C
Track not present in AccurateRip database
Copy OK
Track 16
Filename C:\Users\BIANCA\Desktop\file scuola\16 44. Il Pensieroso. Solo (Sopran) und Chorus.wav
Peak level 61.9 %
Extraction speed 1.9 X
Track quality 100.0 %
Test CRC 3E5E1369
Copy CRC 3E5E1369
Track not present in AccurateRip database
Copy OK
Track 17
Filename C:\Users\BIANCA\Desktop\file scuola\17 45. Il Moderato. Accompagnato (Bass).wav
Peak level 26.8 %
Extraction speed 0.5 X
Track quality 99.5 %
Test CRC 71D459CE
Copy CRC 71D459CE
Track not present in AccurateRip database
Copy OK
Track 18
Filename C:\Users\BIANCA\Desktop\file scuola\18 46. Il Moderato. Aria (Bass).wav
Peak level 30.6 %
Extraction speed 1.6 X
Track quality 99.9 %
Test CRC 4A4A7F16
Copy CRC 4A4A7F16
Track not present in AccurateRip database
Copy OK
Track 19
Filename C:\Users\BIANCA\Desktop\file scuola\19 47. Il Moderato. Accompagnato (Bass).wav
Peak level 29.2 %
Extraction speed 1.3 X
Track quality 100.0 %
Test CRC BFAD616B
Copy CRC BFAD616B
Track not present in AccurateRip database
Copy OK
Track 20
Filename C:\Users\BIANCA\Desktop\file scuola\20 48. Il Moderato. Chorus.wav
Peak level 55.0 %
Extraction speed 1.6 X
Track quality 100.0 %
Test CRC F0BC0005
Copy CRC F0BC0005
Track not present in AccurateRip database
Copy OK
Track 21
Filename C:\Users\BIANCA\Desktop\file scuola\21 49. Il Moderato. Aria (Sopran).wav
Peak level 55.1 %
Extraction speed 1.7 X
Track quality 100.0 %
Test CRC A6BDF874
Copy CRC A6BDF874
Track not present in AccurateRip database
Copy OK
Track 22
Filename C:\Users\BIANCA\Desktop\file scuola\22 50. Il Moderato. Rezitativ (Tenor).wav
Peak level 30.9 %
Extraction speed 0.8 X
Track quality 99.7 %
Test CRC 8C826132
Copy CRC 8C826132
Track not present in AccurateRip database
Copy OK
Track 23
Filename C:\Users\BIANCA\Desktop\file scuola\23 51. Il Moderato. Aria (Tenor).wav
Peak level 49.0 %
Extraction speed 1.8 X
Track quality 100.0 %
Test CRC 006E4094
Copy CRC 006E4094
Track not present in AccurateRip database
Copy OK
Track 24
Filename C:\Users\BIANCA\Desktop\file scuola\24 52. Il Moderato. Duet (Sopran und Tenor).wav
Peak level 50.2 %
Extraction speed 2.2 X
Track quality 100.0 %
Test CRC 88EC57C4
Copy CRC 88EC57C4
Track not present in AccurateRip database
Copy OK
Track 25
Filename C:\Users\BIANCA\Desktop\file scuola\25 53. Il Moderato. Chorus.wav
Peak level 53.4 %
Extraction speed 2.1 X
Track quality 100.0 %
Test CRC 4910054B
Copy CRC 4910054B
Track not present in AccurateRip database
Copy OK
None of the tracks are present in the AccurateRip database
No errors occurred
End of status report
==== Log checksum 7FE29DC56648D325AEFF487ABE3F893B4E8A3790B8417E0CDFBD57BBC57C9C70 ====

LOG (.CUE) 1:

REM DISCID 820E141C
REM COMMENT "ExactAudioCopy v1.0b3"
CATALOG 4009350833951
PERFORMER "Collegium Cartusianum - Kцlner Kammerchor - Maria Keohane, Julia Doyle, Benja..."
TITLE "L'allegro, il Pensieroso ed il Moderato - Teil 1"
FILE "01 Ouvertьre. Concerto grosso op.6,1.wav" WAVE
TRACK 01 AUDIO
TITLE "Ouvertьre. Concerto grosso op.6,1 "
PERFORMER "Collegium Cartusianum - Kцlner Kammerchor - Maria Keohane, Julia Doyle, Benja..."
ISRC DEB111301001
FLAGS DCP
INDEX 01 00:00:00
FILE "02 1. L'Allegro. Accompagnato (Tenor).wav" WAVE
TRACK 02 AUDIO
TITLE "1. L'Allegro. Accompagnato (Tenor)"
PERFORMER "Collegium Cartusianum - Kцlner Kammerchor - Maria Keohane, Julia Doyle, Benja..."
ISRC DEB111301002
FLAGS DCP
INDEX 01 00:00:00
FILE "03 2. Il Pensieroso. Accompagnato (Sopran).wav" WAVE
TRACK 03 AUDIO
TITLE "2. Il Pensieroso. Accompagnato (Sopran)"
PERFORMER "Collegium Cartusianum - Kцlner Kammerchor - Maria Keohane, Julia Doyle, Benja..."
ISRC DEB111301003
FLAGS DCP
INDEX 01 00:00:00
FILE "04 3. L'Allegro. Aria (Sopran).wav" WAVE
TRACK 04 AUDIO
TITLE "3. L'Allegro. Aria (Sopran)"
PERFORMER "Collegium Cartusianum - Kцlner Kammerchor - Maria Keohane, Julia Doyle, Benja..."
ISRC DEB111301004
FLAGS DCP
INDEX 01 00:00:00
FILE "05 4. Il Pensieroso. Aria (Sopran).wav" WAVE
TRACK 05 AUDIO
TITLE "4. Il Pensieroso. Aria (Sopran)"
PERFORMER "Collegium Cartusianum - Kцlner Kammerchor - Maria Keohane, Julia Doyle, Benja..."
ISRC DEB111301005
FLAGS DCP
INDEX 01 00:00:00
FILE "06 5. L'Allegro. Aria (Tenor).wav" WAVE
TRACK 06 AUDIO
TITLE "5. L'Allegro. Aria (Tenor)"
PERFORMER "Collegium Cartusianum - Kцlner Kammerchor - Maria Keohane, Julia Doyle, Benja..."
ISRC DEB111301006
FLAGS DCP
INDEX 01 00:00:00
FILE "07 6. L'Allegro. Chorus.wav" WAVE
TRACK 07 AUDIO
TITLE "6. L'Allegro. Chorus"
PERFORMER "Collegium Cartusianum - Kцlner Kammerchor - Maria Keohane, Julia Doyle, Benja..."
ISRC DEB111301007
FLAGS DCP
INDEX 01 00:00:00
FILE "08 7. L'Allegro. Aria (Tenor).wav" WAVE
TRACK 08 AUDIO
TITLE "7. L'Allegro. Aria (Tenor)"
PERFORMER "Collegium Cartusianum - Kцlner Kammerchor - Maria Keohane, Julia Doyle, Benja..."
ISRC DEB111301008
FLAGS DCP
INDEX 01 00:00:00
FILE "09 8. L'Allegro. Chorus.wav" WAVE
TRACK 09 AUDIO
TITLE "8. L'Allegro. Chorus"
PERFORMER "Collegium Cartusianum - Kцlner Kammerchor - Maria Keohane, Julia Doyle, Benja..."
ISRC DEB111301009
FLAGS DCP
INDEX 01 00:00:00
FILE "10 9. Il Pensieroso. Accompagnato (Sopran).wav" WAVE
TRACK 10 AUDIO
TITLE "9. Il Pensieroso. Accompagnato (Sopran)"
PERFORMER "Collegium Cartusianum - Kцlner Kammerchor - Maria Keohane, Julia Doyle, Benja..."
ISRC DEB111301010
FLAGS DCP
INDEX 01 00:00:00
FILE "11 10. Il Pensieroso. Aria (Sopran).wav" WAVE
TRACK 11 AUDIO
TITLE "10. Il Pensieroso. Aria (Sopran)"
PERFORMER "Collegium Cartusianum - Kцlner Kammerchor - Maria Keohane, Julia Doyle, Benja..."
ISRC DEB111301011
FLAGS DCP
INDEX 01 00:00:00
FILE "12 11. Il Pensieroso. Accompagnato und Aria (Sopran).wav" WAVE
TRACK 12 AUDIO
TITLE "11. Il Pensieroso. Accompagnato und Aria (Sopran)"
PERFORMER "Collegium Cartusianum - Kцlner Kammerchor - Maria Keohane, Julia Doyle, Benja..."
ISRC DEB111301012
FLAGS DCP
INDEX 01 00:00:00
FILE "13 12. Il Pensieroso. Chorus.wav" WAVE
TRACK 13 AUDIO
TITLE "12. Il Pensieroso. Chorus"
PERFORMER "Collegium Cartusianum - Kцlner Kammerchor - Maria Keohane, Julia Doyle, Benja..."
ISRC DEB111301013
FLAGS DCP
INDEX 01 00:00:00
FILE "14 13. L'Allegro. Rezitativ (Tenor).wav" WAVE
TRACK 14 AUDIO
TITLE "13. L'Allegro. Rezitativ (Tenor)"
PERFORMER "Collegium Cartusianum - Kцlner Kammerchor - Maria Keohane, Julia Doyle, Benja..."
ISRC DEB111301014
FLAGS DCP
INDEX 01 00:00:00
FILE "15 14. L'Allegro. Rezitativ (Sopran).wav" WAVE
TRACK 15 AUDIO
TITLE "14. L'Allegro. Rezitativ (Sopran)"
PERFORMER "Collegium Cartusianum - Kцlner Kammerchor - Maria Keohane, Julia Doyle, Benja..."
ISRC DEB111301015
FLAGS DCP
INDEX 01 00:00:00
FILE "16 15. L'Allegro. Aria (Sopran).wav" WAVE
TRACK 16 AUDIO
TITLE "15. L'Allegro. Aria (Sopran)"
PERFORMER "Collegium Cartusianum - Kцlner Kammerchor - Maria Keohane, Julia Doyle, Benja..."
ISRC DEB111301016
FLAGS DCP
INDEX 01 00:00:00
FILE "17 16. Il Pensieroso. Accompagnato (Sopran).wav" WAVE
TRACK 17 AUDIO
TITLE "16. Il Pensieroso. Accompagnato (Sopran)"
PERFORMER "Collegium Cartusianum - Kцlner Kammerchor - Maria Keohane, Julia Doyle, Benja..."
ISRC DEB111301017
FLAGS DCP
INDEX 01 00:00:00
FILE "18 17. Il Pensieroso. Aria (Sopran).wav" WAVE
TRACK 18 AUDIO
TITLE "17. Il Pensieroso. Aria (Sopran)"
PERFORMER "Collegium Cartusianum - Kцlner Kammerchor - Maria Keohane, Julia Doyle, Benja..."
ISRC DEB111301018
FLAGS DCP
INDEX 01 00:00:00
FILE "19 18. L'Allegro. Rezitativ (Bass).wav" WAVE
TRACK 19 AUDIO
TITLE "18. L'Allegro. Rezitativ (Bass)"
PERFORMER "Collegium Cartusianum - Kцlner Kammerchor - Maria Keohane, Julia Doyle, Benja..."
ISRC DEB111301019
FLAGS DCP
INDEX 01 00:00:00
FILE "20 19. L'Allegro. Aria (Bass).wav" WAVE
TRACK 20 AUDIO
TITLE "19. L'Allegro. Aria (Bass)"
PERFORMER "Collegium Cartusianum - Kцlner Kammerchor - Maria Keohane, Julia Doyle, Benja..."
ISRC DEB111301020
FLAGS DCP
INDEX 01 00:00:00
FILE "21 20. Il Pensieroso. Aria (Sopran).wav" WAVE
TRACK 21 AUDIO
TITLE "20. Il Pensieroso. Aria (Sopran)"
PERFORMER "Collegium Cartusianum - Kцlner Kammerchor - Maria Keohane, Julia Doyle, Benja..."
ISRC DEB111301021
FLAGS DCP
INDEX 01 00:00:00
FILE "22 21. Il Pensieroso. Aria (Sopran).wav" WAVE
TRACK 22 AUDIO
TITLE "21. Il Pensieroso. Aria (Sopran)"
PERFORMER "Collegium Cartusianum - Kцlner Kammerchor - Maria Keohane, Julia Doyle, Benja..."
ISRC DEB111301022
FLAGS DCP
INDEX 01 00:00:00
FILE "23 22. L'Allegro. Rezitativ (Tenor).wav" WAVE
TRACK 23 AUDIO
TITLE "22. L'Allegro. Rezitativ (Tenor)"
PERFORMER "Collegium Cartusianum - Kцlner Kammerchor - Maria Keohane, Julia Doyle, Benja..."
ISRC DEB111301023
FLAGS DCP
INDEX 01 00:00:00
FILE "24 23. L'Allegro. Siciliana (Tenor).wav" WAVE
TRACK 24 AUDIO
TITLE "23. L'Allegro. Siciliana (Tenor)"
PERFORMER "Collegium Cartusianum - Kцlner Kammerchor - Maria Keohane, Julia Doyle, Benja..."
ISRC DEB111301024
FLAGS DCP
INDEX 01 00:00:00
FILE "25 24. L'Allegro. Aria (Sopran).wav" WAVE
TRACK 25 AUDIO
TITLE "24. L'Allegro. Aria (Sopran)"
PERFORMER "Collegium Cartusianum - Kцlner Kammerchor - Maria Keohane, Julia Doyle, Benja..."
ISRC DEB111301025
FLAGS DCP
INDEX 01 00:00:00
FILE "26 25. L'Allegro. Accompagnato (Bass).wav" WAVE
TRACK 26 AUDIO
TITLE "25. L'Allegro. Accompagnato (Bass)"
PERFORMER "Collegium Cartusianum - Kцlner Kammerchor - Maria Keohane, Julia Doyle, Benja..."
ISRC DEB111301026
FLAGS DCP
INDEX 01 00:00:00
FILE "27 26. L'Allegro. Arie (Sopran).wav" WAVE
TRACK 27 AUDIO
TITLE "26. L'Allegro. Arie (Sopran)"
PERFORMER "Collegium Cartusianum - Kцlner Kammerchor - Maria Keohane, Julia Doyle, Benja..."
ISRC DEB111301027
FLAGS DCP
INDEX 01 00:00:00
FILE "28 27. L'Allegro. Chorus.wav" WAVE
TRACK 28 AUDIO
TITLE "27. L'Allegro. Chorus"
PERFORMER "Collegium Cartusianum - Kцlner Kammerchor - Maria Keohane, Julia Doyle, Benja..."
ISRC DEB111301028
FLAGS DCP
INDEX 01 00:00:00

LOG (.CUE) 2:

REM DISCID 6A0DDE19
REM COMMENT "ExactAudioCopy v1.0b3"
CATALOG 4009350833951
PERFORMER "Collegium Cartusianum - Kцlner Kammerchor - Maria Keohane, Julia Doyle, Benja..."
TITLE "L'allegro, il Pensieroso ed il Moderato - Teil 2 und Teil 3"
FILE "01 28. Il Pensieroso. Accompagnato (Sopran).wav" WAVE
TRACK 01 AUDIO
TITLE "28. Il Pensieroso. Accompagnato (Sopran)"
PERFORMER "Collegium Cartusianum - Kцlner Kammerchor - Maria Keohane, Julia Doyle, Benja..."
ISRC DEB111301029
FLAGS DCP
INDEX 01 00:00:00
FILE "02 29. Il Pensieroso. Aria (Sopran).wav" WAVE
TRACK 02 AUDIO
TITLE "29. Il Pensieroso. Aria (Sopran)"
PERFORMER "Collegium Cartusianum - Kцlner Kammerchor - Maria Keohane, Julia Doyle, Benja..."
ISRC DEB111301030
FLAGS DCP
INDEX 01 00:00:00
FILE "03 30. Il Pensieroso. Aria (Sopran).wav" WAVE
TRACK 03 AUDIO
TITLE "30. Il Pensieroso. Aria (Sopran)"
PERFORMER "Collegium Cartusianum - Kцlner Kammerchor - Maria Keohane, Julia Doyle, Benja..."
ISRC DEB111301031
FLAGS DCP
INDEX 01 00:00:00
FILE "04 31. Il Pensieroso. Rezitativ (Sopran).wav" WAVE
TRACK 04 AUDIO
TITLE "31. Il Pensieroso. Rezitativ (Sopran)"
PERFORMER "Collegium Cartusianum - Kцlner Kammerchor - Maria Keohane, Julia Doyle, Benja..."
ISRC DEB111301032
FLAGS DCP
INDEX 01 00:00:00
FILE "05 32. L'Allegro. Solo (Bass) und Chorus.wav" WAVE
TRACK 05 AUDIO
TITLE "32. L'Allegro. Solo (Bass) und Chorus"
PERFORMER "Collegium Cartusianum - Kцlner Kammerchor - Maria Keohane, Julia Doyle, Benja..."
ISRC DEB111301033
FLAGS DCP
INDEX 01 00:00:00
FILE "06 33. L'Allegro. Aria (Tenor).wav" WAVE
TRACK 06 AUDIO
TITLE "33. L'Allegro. Aria (Tenor) "
PERFORMER "Collegium Cartusianum - Kцlner Kammerchor - Maria Keohane, Julia Doyle, Benja..."
ISRC DEB111301034
FLAGS DCP
INDEX 01 00:00:00
FILE "07 34. Il Pensieroso. Accompagnato (Sopran).wav" WAVE
TRACK 07 AUDIO
TITLE "34. Il Pensieroso. Accompagnato (Sopran)"
PERFORMER "Collegium Cartusianum - Kцlner Kammerchor - Maria Keohane, Julia Doyle, Benja..."
ISRC DEB111301035
FLAGS DCP
INDEX 01 00:00:00
FILE "08 35. Il Pensieroso. Aria (Sopran).wav" WAVE
TRACK 08 AUDIO
TITLE "35. Il Pensieroso. Aria (Sopran)"
PERFORMER "Collegium Cartusianum - Kцlner Kammerchor - Maria Keohane, Julia Doyle, Benja..."
ISRC DEB111301036
FLAGS DCP
INDEX 01 00:00:00
FILE "09 36. L'Allegro. Aria (Tenor).wav" WAVE
TRACK 09 AUDIO
TITLE "36. L'Allegro. Aria (Tenor)"
PERFORMER "Collegium Cartusianum - Kцlner Kammerchor - Maria Keohane, Julia Doyle, Benja..."
ISRC DEB111301037
FLAGS DCP
INDEX 01 00:00:00
FILE "10 37. L'Allegro. Aria (Sopran).wav" WAVE
TRACK 10 AUDIO
TITLE "37. L'Allegro. Aria (Sopran)"
PERFORMER "Collegium Cartusianum - Kцlner Kammerchor - Maria Keohane, Julia Doyle, Benja..."
ISRC DEB111301038
FLAGS DCP
INDEX 01 00:00:00
FILE "11 38. L'Allegro. Aria (Sopran).wav" WAVE
TRACK 11 AUDIO
TITLE "38. L'Allegro. Aria (Sopran)"
PERFORMER "Collegium Cartusianum - Kцlner Kammerchor - Maria Keohane, Julia Doyle, Benja..."
ISRC DEB111301039
FLAGS DCP
INDEX 01 00:00:00
FILE "12 39. L'Allegro. Aria (Tenor).wav" WAVE
TRACK 12 AUDIO
TITLE "39. L'Allegro. Aria (Tenor) "
PERFORMER "Collegium Cartusianum - Kцlner Kammerchor - Maria Keohane, Julia Doyle, Benja..."
ISRC DEB111301040
FLAGS DCP
INDEX 01 00:00:00
FILE "13 40. L'Allegro. Chorus.wav" WAVE
TRACK 13 AUDIO
TITLE "40. L'Allegro. Chorus"
PERFORMER "Collegium Cartusianum - Kцlner Kammerchor - Maria Keohane, Julia Doyle, Benja..."
ISRC DEB111301041
FLAGS DCP
INDEX 01 00:00:00
FILE "14 41. Il Pensieroso. Rezitativ (Sopran).wav" WAVE
TRACK 14 AUDIO
TITLE "41. Il Pensieroso. Rezitativ (Sopran)"
PERFORMER "Collegium Cartusianum - Kцlner Kammerchor - Maria Keohane, Julia Doyle, Benja..."
ISRC DEB111301042
FLAGS DCP
INDEX 01 00:00:00
FILE "15 42. Il Pensieroso. Chorus und Sopran.wav" WAVE
TRACK 15 AUDIO
TITLE "42. Il Pensieroso. Chorus und Sopran"
PERFORMER "Collegium Cartusianum - Kцlner Kammerchor - Maria Keohane, Julia Doyle, Benja..."
ISRC DEB111301043
FLAGS DCP
INDEX 01 00:00:00
FILE "16 44. Il Pensieroso. Solo (Sopran) und Chorus.wav" WAVE
TRACK 16 AUDIO
TITLE "44. Il Pensieroso. Solo (Sopran) und Chorus"
PERFORMER "Collegium Cartusianum - Kцlner Kammerchor - Maria Keohane, Julia Doyle, Benja..."
ISRC DEB111301044
FLAGS DCP
INDEX 01 00:00:00
FILE "17 45. Il Moderato. Accompagnato (Bass).wav" WAVE
TRACK 17 AUDIO
TITLE "45. Il Moderato. Accompagnato (Bass)"
PERFORMER "Collegium Cartusianum - Kцlner Kammerchor - Maria Keohane, Julia Doyle, Benja..."
ISRC DEB111301045
FLAGS DCP
INDEX 01 00:00:00
FILE "18 46. Il Moderato. Aria (Bass).wav" WAVE
TRACK 18 AUDIO
TITLE "46. Il Moderato. Aria (Bass)"
PERFORMER "Collegium Cartusianum - Kцlner Kammerchor - Maria Keohane, Julia Doyle, Benja..."
ISRC DEB111301046
FLAGS DCP
INDEX 01 00:00:00
FILE "19 47. Il Moderato. Accompagnato (Bass).wav" WAVE
TRACK 19 AUDIO
TITLE "47. Il Moderato. Accompagnato (Bass)"
PERFORMER "Collegium Cartusianum - Kцlner Kammerchor - Maria Keohane, Julia Doyle, Benja..."
ISRC DEB111301047
FLAGS DCP
INDEX 01 00:00:00
FILE "20 48. Il Moderato. Chorus.wav" WAVE
TRACK 20 AUDIO
TITLE "48. Il Moderato. Chorus"
PERFORMER "Collegium Cartusianum - Kцlner Kammerchor - Maria Keohane, Julia Doyle, Benja..."
ISRC DEB111301048
FLAGS DCP
INDEX 01 00:00:00
FILE "21 49. Il Moderato. Aria (Sopran).wav" WAVE
TRACK 21 AUDIO
TITLE "49. Il Moderato. Aria (Sopran)"
PERFORMER "Collegium Cartusianum - Kцlner Kammerchor - Maria Keohane, Julia Doyle, Benja..."
ISRC DEB111301049
FLAGS DCP
INDEX 01 00:00:00
FILE "22 50. Il Moderato. Rezitativ (Tenor).wav" WAVE
TRACK 22 AUDIO
TITLE "50. Il Moderato. Rezitativ (Tenor)"
PERFORMER "Collegium Cartusianum - Kцlner Kammerchor - Maria Keohane, Julia Doyle, Benja..."
ISRC DEB111301050
FLAGS DCP
INDEX 01 00:00:00
FILE "23 51. Il Moderato. Aria (Tenor).wav" WAVE
TRACK 23 AUDIO
TITLE "51. Il Moderato. Aria (Tenor)"
PERFORMER "Collegium Cartusianum - Kцlner Kammerchor - Maria Keohane, Julia Doyle, Benja..."
ISRC DEB111301051
FLAGS DCP
INDEX 01 00:00:00
FILE "24 52. Il Moderato. Duet (Sopran und Tenor).wav" WAVE
TRACK 24 AUDIO
TITLE "52. Il Moderato. Duet (Sopran und Tenor)"
PERFORMER "Collegium Cartusianum - Kцlner Kammerchor - Maria Keohane, Julia Doyle, Benja..."
ISRC DEB111301052
FLAGS DCP
INDEX 01 00:00:00
FILE "25 53. Il Moderato. Chorus.wav" WAVE
TRACK 25 AUDIO
TITLE "53. Il Moderato. Chorus"
PERFORMER "Collegium Cartusianum - Kцlner Kammerchor - Maria Keohane, Julia Doyle, Benja..."
ISRC DEB111301053
FLAGS DCP
INDEX 01 00:00:00
mp3
[teatrix.ru].t18670.torrent 
Торрент: Зарегистрирован [ 2016-03-17 00:31 ] · 970DA5D0F3D890867140473AA5DFE1BAE45E9508

Скачать .torrent

Скачать

18 KB

Статус: проверено
Скачан: 0 раз
Размер: 602 MB
terms.php



Быстрый ответ

Имя:

      
Для отправки сообщений необходимо включить JavaScript
Показать сообщения:    

Текущее время: 06-Дек 17:11

Часовой пояс: UTC + 3


Вы можете начинать темы
Вы можете отвечать на сообщения
Вы не можете редактировать свои сообщения
Вы не можете удалять свои сообщения
Вы не можете голосовать в опросах
Вы не можете прикреплять файлы к сообщениям
Вы можете скачивать файлы