(Classical, Orchestral, Keyboard, Authentic) Carl Philipp Emanuel Bach - Keyboard Concertos. Vol. 1 [Concerto Armonico, Peter Szuts, Miklos Spanyi], BIS 1995, FLAC (image+.cue), lossless


Статистика раздачи [Обновить пиров]
Размер:  391 MB   |    Зарегистрирован:  8 месяцев 21 день   |    Скачан:  0 раз

Полного источника не было: Никогда

 
   
 
 
 

[Цитировать]

Carl Philipp Emanuel BachConcerti per tastiera. Tomo Primo.
H. 403 [Wq 1], H. 404 [Wq 2], H. 405 [Wq 3]

Концерты для клавира. Том Первый.-- Жанр: Classical, Orchestral, Keyboard, Authentic
Страна-производитель диска: Austria
Год издания: 1995
Лейбл: BIS
Номер в каталоге: BIS-CD-707
Аудиокодек: FLAC
Тип рипа: image+.cue
Битрейт аудио: lossless
Продолжительность: 01:01:53
Наличие сканов: booklet [jpeg]
Источник: ODEON
LOSSY-Concerto Armonico
Péter Szűts direttore artistico
Miklós Spányi cembalista e direttore artistico

Треклист

01. H. 405 [Wq 3] - Concerto in Sol maggiore per cembalo, archi e basso continuo - I. Allegro di molto [00:07:10]
02. II. Adagio [00:06:40]
03. III. Allegro [00:06:01]
04. H. 403 [Wq 1] - Concerto in La minore per cembalo, archi e basso continuo - I. Allegro [00:06:19]
05. II. Andante [00:07:01]
06. III. Allegro assai [00:04:42]
07. H. 404 [Wq 2] - Concerto in Mi bemolle maggiore per cembalo, archi e basso continuo - I. Allegro non molto [00:07:33]
08. II. Largo [00:08:06]
09. III. Allegro assai [00:08:19]

LOG EAC

Exact Audio Copy V1.0 beta 3 from 29. August 2011
EAC extraction logfile from 11. March 2014, 20:30
Miklos Spanyi / C.P.E. Bach - Keyboard Concertos - Miklós Spányi (Vol.1)
Used drive : TSSTcorpCDDVDW SH-222BB Adapter: 2 ID: 1
Read mode : Secure
Utilize accurate stream : Yes
Defeat audio cache : Yes
Make use of C2 pointers : No
Read offset correction : 6
Overread into Lead-In and Lead-Out : No
Fill up missing offset samples with silence : Yes
Delete leading and trailing silent blocks : No
Null samples used in CRC calculations : Yes
Used interface : Native Win32 interface for Win NT & 2000
Used output format : User Defined Encoder
Selected bitrate : 896 kBit/s
Quality : High
Add ID3 tag : No
Command line compressor : C:\Program Files\Exact Audio Copy\FLAC\FLAC.EXE
Additional command line options : -8 -V -T "TITLE=%title%" -T "ARTIST=%artist%" -T "ALBUMARTIST=%albumartist%" -T "ALBUM=%albumtitle%" -T "DATE=%year%" -T "TRACKNUMBER=%tracknr%" -T "TRACKTOTAL=%numtracks%" -T "GENRE=%genre%" -T "COMMENT=%comment%" -T "PERFORMER=%albuminterpret%" -T "COMPOSER=%composer%" %source% -o %dest%
TOC of the extracted CD
Track | Start | Length | Start sector | End sector
---------------------------------------------------------
1 | 0:00.00 | 7:10.00 | 0 | 32249
2 | 7:10.00 | 6:40.25 | 32250 | 62274
3 | 13:50.25 | 6:01.50 | 62275 | 89399
4 | 19:52.00 | 6:19.00 | 89400 | 117824
5 | 26:11.00 | 7:01.25 | 117825 | 149424
6 | 33:12.25 | 4:42.50 | 149425 | 170624
7 | 37:55.00 | 7:33.00 | 170625 | 204599
8 | 45:28.00 | 8:06.00 | 204600 | 241049
9 | 53:34.00 | 8:19.00 | 241050 | 278474
Range status and errors
Selected range
Filename E:\3000\[3372] C.P.E. Bach – Keyboard Concertos – Miklós Spányi (Vol.1)\C.P.E. Bach - Keyboard Concertos - Miklós Spányi (Vol.1).wav
Peak level 97.2 %
Extraction speed 6.7 X
Range quality 100.0 %
Test CRC A6DEDB99
Copy CRC A6DEDB99
Copy OK
No errors occurred
AccurateRip summary
Track 1 accurately ripped (confidence 5) [3E870755] (AR v2)
Track 2 accurately ripped (confidence 5) [5EB6987F] (AR v2)
Track 3 accurately ripped (confidence 5) [6474ADDA] (AR v2)
Track 4 accurately ripped (confidence 5) [D1E7C1C6] (AR v2)
Track 5 accurately ripped (confidence 5) [DEE2CBE1] (AR v2)
Track 6 accurately ripped (confidence 5) [28916E99] (AR v2)
Track 7 accurately ripped (confidence 5) [7DBC1060] (AR v2)
Track 8 accurately ripped (confidence 5) [EC637434] (AR v2)
Track 9 accurately ripped (confidence 5) [34B2013D] (AR v2)
All tracks accurately ripped
End of status report
==== Log checksum F287BC9336D96CFC8375CD6F9C3AD05F96C1F24A9EA33360BCEB9F229F66EC0F ====

.CUE

REM GENRE Musica classica
REM DATE 1995
REM DISCID 780E8109
REM COMMENT "TitoManlio"
CATALOG 7318590007075
PERFORMER "Concerto Armonico, Péter Szűts [direttore artistico], Miklós Spányi [cembalista e direttore artistico]"
TITLE "Bach C. Ph. E. Concerti per tastiera. Tomo Primo [BIS 1995]."
FILE "Bach C. Ph. E. Concerti per tastiera. Tomo Primo [BIS 1995].flac" WAVE
TRACK 01 AUDIO
TITLE "Concerto H. 405 [Wq 3] in Sol maggiore per cembalo, archi e basso continuo - I. Allegro di molto"
PERFORMER "Concerto Armonico, Péter Szűts [direttore artistico], Miklós Spányi [cembalista e direttore artistico]"
ISRC SEAEH9407010
FLAGS PRE
INDEX 01 00:00:00
TRACK 02 AUDIO
TITLE "Concerto H. 405 [Wq 3] in Sol maggiore per cembalo, archi e basso continuo - II. Adagio"
PERFORMER "Concerto Armonico, Péter Szűts [direttore artistico], Miklós Spányi [cembalista e direttore artistico]"
ISRC SEAEH9407020
FLAGS PRE
INDEX 01 07:10:00
TRACK 03 AUDIO
TITLE "Concerto H. 405 [Wq 3] in Sol maggiore per cembalo, archi e basso continuo - III. Allegro"
PERFORMER "Concerto Armonico, Péter Szűts [direttore artistico], Miklós Spányi [cembalista e direttore artistico]"
ISRC SEAEH9407030
FLAGS PRE
INDEX 01 13:50:25
TRACK 04 AUDIO
TITLE "Concerto H. 403 [Wq 1] in La minore per cembalo, archi e basso continuo - I. Allegro"
PERFORMER "Concerto Armonico, Péter Szűts [direttore artistico], Miklós Spányi [cembalista e direttore artistico]"
ISRC SEAEH9407040
FLAGS PRE
INDEX 01 19:52:00
TRACK 05 AUDIO
TITLE "Concerto H. 403 [Wq 1] in La minore per cembalo, archi e basso continuo - II. Andante"
PERFORMER "Concerto Armonico, Péter Szűts [direttore artistico], Miklós Spányi [cembalista e direttore artistico]"
ISRC SEAEH9407050
FLAGS PRE
INDEX 01 26:11:00
TRACK 06 AUDIO
TITLE "Concerto H. 403 [Wq 1] in La minore per cembalo, archi e basso continuo - III. Allegro assai"
PERFORMER "Concerto Armonico, Péter Szűts [direttore artistico], Miklós Spányi [cembalista e direttore artistico]"
ISRC SEAEH9407060
FLAGS PRE
INDEX 01 33:12:25
TRACK 07 AUDIO
TITLE "Concerto H. 404 [Wq 2] in Mi bemolle maggiore per cembalo, archi e basso continuo - I. Allegro non molto"
PERFORMER "Concerto Armonico, Péter Szűts [direttore artistico], Miklós Spányi [cembalista e direttore artistico]"
ISRC SEAEH9407070
FLAGS PRE
INDEX 01 37:55:00
TRACK 08 AUDIO
TITLE "Concerto H. 404 [Wq 2] in Mi bemolle maggiore per cembalo, archi e basso continuo - II. Largo"
PERFORMER "Concerto Armonico, Péter Szűts [direttore artistico], Miklós Spányi [cembalista e direttore artistico]"
ISRC SEAEH9407080
FLAGS PRE
INDEX 01 45:28:00
TRACK 09 AUDIO
TITLE "Concerto H. 404 [Wq 2] in Mi bemolle maggiore per cembalo, archi e basso continuo - III. Allegro assai"
PERFORMER "Concerto Armonico, Péter Szűts [direttore artistico], Miklós Spányi [cembalista e direttore artistico]"
ISRC SEAEH9407090
FLAGS PRE
INDEX 01 53:34:00
--Смотрите также:Просьба не уходить с раздачи!!!
[teatrix.ru].t18672.torrent 
Торрент: Зарегистрирован [ 2016-03-17 00:31 ] · 0BC79A1A544B9106A20981589AFB8E2CF5FEF72C

Скачать .torrent

Скачать

17 KB

Статус: проверено
Скачан: 0 раз
Размер: 391 MB
terms.php



Быстрый ответ

Имя:

      
Для отправки сообщений необходимо включить JavaScript
Показать сообщения:    

Текущее время: 07-Дек 17:31

Часовой пояс: UTC + 3


Вы можете начинать темы
Вы можете отвечать на сообщения
Вы не можете редактировать свои сообщения
Вы не можете удалять свои сообщения
Вы не можете голосовать в опросах
Вы не можете прикреплять файлы к сообщениям
Вы можете скачивать файлы