(Classical, Orchestral, Keyboard, Authentic) Carl Philipp Emanuel Bach - Keyboard Concertos. Vol. 2 [Concerto Armonico, Peter Szuts, Miklos Spanyi], BIS 1996, FLAC (image+.cue), lossless


Статистика раздачи [Обновить пиров]
Размер:  424 MB   |    Зарегистрирован:  8 месяцев 19 дней   |    Скачан:  0 раз

Полного источника не было: Никогда

 
   
 
 
 

[Цитировать]

Carl Philipp Emanuel BachConcerti per tastiera. Tomo Secondo.
H. 406 [Wq 4], H. 410 [Wq 7], H. 415 [Wq 12]

Концерты для клавира. Том Второй.-- Жанр: Classical, Orchestral, Keyboard, Authentic
Страна-производитель диска: Austria
Год издания: 1996
Лейбл: BIS
Номер в каталоге: BIS-CD-708
Аудиокодек: FLAC
Тип рипа: image+.cue
Битрейт аудио: lossless
Продолжительность: 01:07:25
Наличие сканов: booklet [jpeg+pdf]
Источник: ODEON
LOSSY-Concerto Armonico
Péter Szűts direttore artistico
Miklós Spányi cembalista e direttore artistico

Треклист

01. H. 410 [Wq 7] - Concerto in La maggiore per cembalo, archi e basso continuo - I. Allegro [00:10:00]
02. II. Adagio [00:08:03]
03. III. Allegro [00:05:34]
04. H. 406 [Wq 4] - Concerto in Sol maggiore per cembalo, archi e basso continuo - I. Allegro [00:05:58]
05. II. Adagio [00:08:42]
06. III. Allegro [00:04:10]
07. H. 415 [Wq 12] - Concerto in Fa maggiore per cembalo, archi e basso continuo - I. Allegro [00:09:05]
08. II. Largo e sostenuto [00:09:18]
09. III. Allegro assai [00:06:35]

LOG EAC

Exact Audio Copy V1.0 beta 3 from 29. August 2011
EAC extraction logfile from 11. March 2014, 21:20
Miklós Spányi / C.P.E. Bach - Keyboard Concertos - Miklós Spányi (Vol.2)
Used drive : TSSTcorpCDDVDW SH-222BB Adapter: 2 ID: 1
Read mode : Secure
Utilize accurate stream : Yes
Defeat audio cache : Yes
Make use of C2 pointers : No
Read offset correction : 6
Overread into Lead-In and Lead-Out : No
Fill up missing offset samples with silence : Yes
Delete leading and trailing silent blocks : No
Null samples used in CRC calculations : Yes
Used interface : Native Win32 interface for Win NT & 2000
Used output format : User Defined Encoder
Selected bitrate : 896 kBit/s
Quality : High
Add ID3 tag : No
Command line compressor : C:\Program Files\Exact Audio Copy\FLAC\FLAC.EXE
Additional command line options : -8 -V -T "TITLE=%title%" -T "ARTIST=%artist%" -T "ALBUMARTIST=%albumartist%" -T "ALBUM=%albumtitle%" -T "DATE=%year%" -T "TRACKNUMBER=%tracknr%" -T "TRACKTOTAL=%numtracks%" -T "GENRE=%genre%" -T "COMMENT=%comment%" -T "PERFORMER=%albuminterpret%" -T "COMPOSER=%composer%" %source% -o %dest%
TOC of the extracted CD
Track | Start | Length | Start sector | End sector
---------------------------------------------------------
1 | 0:00.00 | 10:00.00 | 0 | 44999
2 | 10:00.00 | 8:03.00 | 45000 | 81224
3 | 18:03.00 | 5:34.00 | 81225 | 106274
4 | 23:37.00 | 5:58.00 | 106275 | 133124
5 | 29:35.00 | 8:42.00 | 133125 | 172274
6 | 38:17.00 | 4:10.00 | 172275 | 191024
7 | 42:27.00 | 9:05.00 | 191025 | 231899
8 | 51:32.00 | 9:18.00 | 231900 | 273749
9 | 60:50.00 | 6:35.00 | 273750 | 303374
Range status and errors
Selected range
Filename E:\3000\[3373] C.P.E. Bach – Keyboard Concertos – Miklós Spányi (Vol.2)\C.P.E. Bach - Keyboard Concertos - Miklós Spányi (Vol.2).wav
Peak level 98.9 %
Extraction speed 7.3 X
Range quality 100.0 %
Test CRC 953F8056
Copy CRC 953F8056
Copy OK
No errors occurred
AccurateRip summary
Track 1 accurately ripped (confidence 6) [F0069B57] (AR v2)
Track 2 accurately ripped (confidence 6) [98E079F1] (AR v2)
Track 3 accurately ripped (confidence 5) [284E9FCF] (AR v2)
Track 4 accurately ripped (confidence 4) [DBDDC3C9] (AR v2)
Track 5 accurately ripped (confidence 6) [DF3F8DB4] (AR v2)
Track 6 accurately ripped (confidence 5) [AAC963EE] (AR v2)
Track 7 accurately ripped (confidence 5) [4BFDF25C] (AR v2)
Track 8 accurately ripped (confidence 6) [A3E98561] (AR v2)
Track 9 accurately ripped (confidence 5) [E96B248F] (AR v2)
All tracks accurately ripped
End of status report
==== Log checksum F14CCD4D7A81FEF3132022441144053CF96B6CCF1F422300C6A7337E8F26948D ====

.CUE

REM GENRE Musica classica
REM DATE 1996
REM DISCID 870FCD09
REM COMMENT "TitoManlio"
CATALOG 7318590007082
PERFORMER "Concerto Armonico, Péter Szűts [direttore artistico], Miklós Spányi [cembalista e direttore artistico]"
TITLE "Bach C. Ph. E. Concerti per tastiera. Tomo Secondo [BIS 1996]."
FILE "Bach C. Ph. E. Concerti per tastiera. Tomo Secondo [BIS 1996].flac" WAVE
TRACK 01 AUDIO
TITLE "Concerto H. 410 [Wq 7] in La maggiore per cembalo, archi e basso continuo - I. Allegro"
PERFORMER "Concerto Armonico, Péter Szűts [direttore artistico], Miklós Spányi [cembalista e direttore artistico]"
ISRC SEAEH9408010
FLAGS PRE
INDEX 01 00:00:00
TRACK 02 AUDIO
TITLE "Concerto H. 410 [Wq 7] in La maggiore per cembalo, archi e basso continuo - II. Adagio"
PERFORMER "Concerto Armonico, Péter Szűts [direttore artistico], Miklós Spányi [cembalista e direttore artistico]"
ISRC SEAEH9408020
FLAGS PRE
INDEX 01 10:00:00
TRACK 03 AUDIO
TITLE "Concerto H. 410 [Wq 7] in La maggiore per cembalo, archi e basso continuo - III. Allegro"
PERFORMER "Concerto Armonico, Péter Szűts [direttore artistico], Miklós Spányi [cembalista e direttore artistico]"
ISRC SEAEH9408030
FLAGS PRE
INDEX 01 18:03:00
TRACK 04 AUDIO
TITLE "Concerto H. 406 [Wq 4] in Sol maggiore per cembalo, archi e basso continuo - I. Allegro"
PERFORMER "Concerto Armonico, Péter Szűts [direttore artistico], Miklós Spányi [cembalista e direttore artistico]"
ISRC SEAEH9408040
FLAGS PRE
INDEX 01 23:37:00
TRACK 05 AUDIO
TITLE "Concerto H. 406 [Wq 4] in Sol maggiore per cembalo, archi e basso continuo - II. Adagio"
PERFORMER "Concerto Armonico, Péter Szűts [direttore artistico], Miklós Spányi [cembalista e direttore artistico]"
ISRC SEAEH9408050
FLAGS PRE
INDEX 01 29:35:00
TRACK 06 AUDIO
TITLE "Concerto H. 406 [Wq 4] in Sol maggiore per cembalo, archi e basso continuo - III. Allegro"
PERFORMER "Concerto Armonico, Péter Szűts [direttore artistico], Miklós Spányi [cembalista e direttore artistico]"
ISRC SEAEH9408060
FLAGS PRE
INDEX 01 38:17:00
TRACK 07 AUDIO
TITLE "Concerto H. 415 [Wq 12] in Fa maggiore per cembalo, archi e basso continuo - I. Allegro"
PERFORMER "Concerto Armonico, Péter Szűts [direttore artistico], Miklós Spányi [cembalista e direttore artistico]"
ISRC SEAEH9408070
FLAGS PRE
INDEX 01 42:27:00
TRACK 08 AUDIO
TITLE "Concerto H. 415 [Wq 12] in Fa maggiore per cembalo, archi e basso continuo - II. Largo e sostenuto"
PERFORMER "Concerto Armonico, Péter Szűts [direttore artistico], Miklós Spányi [cembalista e direttore artistico]"
ISRC SEAEH9408080
FLAGS PRE
INDEX 01 51:32:00
TRACK 09 AUDIO
TITLE "Concerto H. 415 [Wq 12] in Fa maggiore per cembalo, archi e basso continuo - III. Allegro assai"
PERFORMER "Concerto Armonico, Péter Szűts [direttore artistico], Miklós Spányi [cembalista e direttore artistico]"
ISRC SEAEH9408090
FLAGS PRE
INDEX 01 60:50:00
--Смотрите также:Просьба не уходить с раздачи!!!
[teatrix.ru].t18674.torrent 
Торрент: Зарегистрирован [ 2016-03-17 00:31 ] · 5676106F5FC4420D3B87F23188B146902E225736

Скачать .torrent

Скачать

18 KB

Статус: проверено
Скачан: 0 раз
Размер: 424 MB
terms.php



Быстрый ответ

Имя:

      
Для отправки сообщений необходимо включить JavaScript
Показать сообщения:    

Текущее время: 05-Дек 19:39

Часовой пояс: UTC + 3


Вы можете начинать темы
Вы можете отвечать на сообщения
Вы не можете редактировать свои сообщения
Вы не можете удалять свои сообщения
Вы не можете голосовать в опросах
Вы не можете прикреплять файлы к сообщениям
Вы можете скачивать файлы