(Sacred Music) De Lalande - Music for The Sun King - Ex Cathedra, J. Skidmore - 2002, FLAC (image+.cue) lossless


Статистика раздачи [Обновить пиров]
Размер:  455 MB   |    Зарегистрирован:  8 месяцев 17 дней   |    Скачан:  0 раз

Полного источника не было: Никогда

 
   
 
 
 

[Цитировать]

Michel-Richard De Lalande - Music for The Sun King - Ex Cathedra, J. Skidmore
Жанр: Sacred Music
Страна-производитель диска: Great Britain
Год издания диска: 2002
Издатель (лейбл): Hyperion
Номер по каталогу: CDA67325
Дата записи: 2001
Аудиокодек: FLAC
Тип рипа: image+.cue
Битрейт аудио: lossless
Продолжительность: 72:09
Источник: релизер Saoshya / Source: ripped and scanned by Saoshya
Важная информация: oпубликовано с разрешением Saoshya и MeetingInMusic blogspot / Important note: posted with the kind permission of Saoshya and MeetingInMusic blogspot
Наличие сканов в содержимом раздачи: да
Треклист:
[01]-[19] Te Deum laudamus S32
[20] Panis Angelicus S74
[21] La grande pièce royale S161
[22] Venite exultemus S58
Исполнители:
Ex Cathedra Chamber Choir, Ex Cathedra Baroque Orchestra, Jeffrey Skidmore

Лог создания рипа

Exact Audio Copy V0.99 prebeta 4 from 23. January 2008
EAC extraction logfile from 5. June 2014, 22:00
Ex Cathedra, Jeffrey Skidmore / Michel-Richard De Lalande - Music for the Sun King
Used drive : SONY DVD-ROM DDU1615 Adapter: 0 ID: 0
Read mode : Secure
Utilize accurate stream : Yes
Defeat audio cache : Yes
Make use of C2 pointers : No
Read offset correction : 6
Overread into Lead-In and Lead-Out : No
Fill up missing offset samples with silence : Yes
Delete leading and trailing silent blocks : No
Null samples used in CRC calculations : Yes
Used interface : Native Win32 interface for Win NT & 2000
Used output format : User Defined Encoder
Selected bitrate : 1024 kBit/s
Quality : High
Add ID3 tag : No
Command line compressor : C:\Program Files\REACT\REACT.exe
Additional command line options : REACT %o %s %d "%a" "%g" "%t" "%n" "%x" "%y" "%m" "%e" "%f" "%b" %r
TOC of the extracted CD
Track | Start | Length | Start sector | End sector
---------------------------------------------------------
1 | 0:00.00 | 2:08.37 | 0 | 9636
2 | 2:08.37 | 0:48.06 | 9637 | 13242
3 | 2:56.43 | 1:06.48 | 13243 | 18240
4 | 4:03.16 | 2:04.04 | 18241 | 27544
5 | 6:07.20 | 1:09.63 | 27545 | 32782
6 | 7:17.08 | 2:31.05 | 32783 | 44112
7 | 9:48.13 | 1:18.27 | 44113 | 49989
8 | 11:06.40 | 3:05.18 | 49990 | 63882
9 | 14:11.58 | 3:08.03 | 63883 | 77985
10 | 17:19.61 | 1:35.12 | 77986 | 85122
11 | 18:54.73 | 1:23.12 | 85123 | 91359
12 | 20:18.10 | 1:28.73 | 91360 | 98032
13 | 21:47.08 | 0:40.66 | 98033 | 101098
14 | 22:27.74 | 1:24.42 | 101099 | 107440
15 | 23:52.41 | 1:28.31 | 107441 | 114071
16 | 25:20.72 | 2:08.60 | 114072 | 123731
17 | 27:29.57 | 1:33.19 | 123732 | 130725
18 | 29:03.01 | 1:20.17 | 130726 | 136742
19 | 30:23.18 | 2:53.40 | 136743 | 149757
20 | 33:16.58 | 3:35.72 | 149758 | 165954
21 | 36:52.55 | 8:42.66 | 165955 | 205170
22 | 45:35.46 | 2:42.20 | 205171 | 217340
23 | 48:17.66 | 4:54.64 | 217341 | 239454
24 | 53:12.55 | 1:34.02 | 239455 | 246506
25 | 54:46.57 | 1:22.67 | 246507 | 252723
26 | 56:09.49 | 7:15.33 | 252724 | 285381
27 | 63:25.07 | 2:38.60 | 285382 | 297291
28 | 66:03.67 | 2:27.72 | 297292 | 308388
29 | 68:31.64 | 3:35.19 | 308389 | 324532
Range status and errors
Selected range
Filename L:\Ripped by Saoshya\CDA67325 - Michel-Richard De Lalande - Music for the Sun King (Ex Cathedra, Jeffrey Skidmore)\CDImage\De Lalande - Music for the Sun King - Ex Cathedra.wav
Peak level 98.8 %
Range quality 99.9 %
Test CRC 7337AC10
Copy CRC 7337AC10
Copy OK
No errors occurred
AccurateRip summary
Track 1 accurately ripped (confidence 1) [76660513]
Track 2 accurately ripped (confidence 1) [DE52AA72]
Track 3 accurately ripped (confidence 1) [4D3E3411]
Track 4 accurately ripped (confidence 1) [046D9DA1]
Track 5 accurately ripped (confidence 1) [37D07CC7]
Track 6 accurately ripped (confidence 1) [CA81C48E]
Track 7 accurately ripped (confidence 1) [ECE2E064]
Track 8 accurately ripped (confidence 1) [61EC0101]
Track 9 accurately ripped (confidence 1) [4159C312]
Track 10 accurately ripped (confidence 1) [72F4A84C]
Track 11 accurately ripped (confidence 1) [F0DCF77E]
Track 12 accurately ripped (confidence 1) [99D6A139]
Track 13 accurately ripped (confidence 1) [3AD6A8D9]
Track 14 accurately ripped (confidence 1) [868D593A]
Track 15 accurately ripped (confidence 1) [0649C050]
Track 16 accurately ripped (confidence 1) [FA70A2C7]
Track 17 accurately ripped (confidence 1) [4ECCB776]
Track 18 accurately ripped (confidence 1) [DFF3B944]
Track 19 accurately ripped (confidence 1) [E5094F05]
Track 20 accurately ripped (confidence 1) [86E5585E]
Track 21 accurately ripped (confidence 1) [0B7E01E6]
Track 22 accurately ripped (confidence 1) [D8DF48C3]
Track 23 accurately ripped (confidence 1) [E6569ECF]
Track 24 accurately ripped (confidence 1) [6E5EFA6D]
Track 25 accurately ripped (confidence 1) [57E4B05D]
Track 26 accurately ripped (confidence 1) [1268C1D3]
Track 27 accurately ripped (confidence 1) [0D3FA4D4]
Track 28 accurately ripped (confidence 1) [78D690B2]
Track 29 accurately ripped (confidence 1) [1AEEFAFF]
All tracks accurately ripped
End of status report
[teatrix.ru].t18684.torrent 
Торрент: Зарегистрирован [ 2016-03-17 00:31 ] · 5A2B79E4BB1ED0FB49BE6A69ECD006CCA4672356

Скачать .torrent

Скачать

20 KB

Статус: проверено
Скачан: 0 раз
Размер: 455 MB
terms.php



Быстрый ответ

Имя:

      
Для отправки сообщений необходимо включить JavaScript
Показать сообщения:    

Текущее время: 03-Дек 20:46

Часовой пояс: UTC + 3


Вы можете начинать темы
Вы можете отвечать на сообщения
Вы не можете редактировать свои сообщения
Вы не можете удалять свои сообщения
Вы не можете голосовать в опросах
Вы не можете прикреплять файлы к сообщениям
Вы можете скачивать файлы