Мондо Макабро / Mondo Macabro (Эндрю Старк / Andrew Starke, Пит Томбс / Pete Tombs) [2001, Великобритания, документальный, DVDRip] VO (Вячеслав Котов)


Статистика раздачи [Обновить пиров]
Размер:  1.93 GB   |    Зарегистрирован:  8 месяцев 17 дней   |    Скачан:  0 раз

Полного источника не было: Никогда

 
   
 
 
 

[Цитировать]

Мондо Макабро / Mondo Macabro
Страна: Великобритания
Жанр: документальный
Год выпуска: 2001-2002
Продолжительность: ~ 00:24:00 × 8 серий
Перевод: Одноголосый закадровый Вячеслав Котов / Виктор Рутилов
Режиссер: Эндрю Старк / Andrew Starke, Пит Томбс / Pete Tombs
В ролях:
Пенелопа МакГи
Кирин Кумар
Эль Бадрун
Барри Прима
Доган Тамер
Описание: 8 короткометражек об истории кино разных стран: Бразилия, Япония, Филиппины, Аргентина, Мексика, Индонезия и др.
Релиз:

Доп. информация: В раздаче 8 файлов:
- Аргентинские ужасы и эротика
- Кошмары гробовщика Джо (Бразилия)
- Южноазиатские ужасы
- Японская эротика
- Триллеры из Манилы
- Мексиканские ужасы
- Турецкое поп кино
- Фантастика из Индонезии (Виктор Рутилов)

Сэмпл:
Качество видео: DVDRip
Формат видео: AVI
Видео: XVID, 1 193 Kbps, 688х424, 23.976 fps
Аудио: AC-3, 192 Kbps, 2 channels, 48.0 KHz

Скриншоты

MediaInfo

General
Complete name : D:\torrent\1 раздачи\Mondo Macabro\Триллеры из Манилы.avi
Format : AVI
Format/Info : Audio Video Interleave
File size : 239 MiB
Duration : 23mn 58s
Overall bit rate : 1 395 Kbps
Writing application : VirtualDubMod 1.5.10.3 | www.virtualdub-fr.org || (build 2550/release)
Writing library : VirtualDub-MPEG2 build 24586/release
Video
ID : 0
Format : MPEG-4 Visual
Format profile : Advanced Simple@L5
Format settings, BVOP : 2
Format settings, QPel : No
Format settings, GMC : No warppoints
Format settings, Matrix : Default (H.263)
Muxing mode : Packed bitstream
Codec ID : XVID
Codec ID/Hint : XviD
Duration : 23mn 58s
Bit rate : 1 193 Kbps
Width : 688 pixels
Height : 424 pixels
Display aspect ratio : 16:10
Frame rate : 23.976 fps
Color space : YUV
Chroma subsampling : 4:2:0
Bit depth : 8 bits
Scan type : Progressive
Compression mode : Lossy
Bits/(Pixel*Frame) : 0.171
Stream size : 205 MiB (86%)
Writing library : XviD 1.2.1 (UTC 2008-12-04)
Audio
ID : 1
Format : AC-3
Format/Info : Audio Coding 3
Mode extension : CM (complete main)
Format settings, Endianness : Big
Codec ID : 2000
Duration : 23mn 58s
Bit rate mode : Constant
Bit rate : 192 Kbps
Channel count : 2 channels
Channel positions : Front: L R
Sampling rate : 48.0 KHz
Bit depth : 16 bits
Compression mode : Lossy
Stream size : 32.9 MiB (14%)
Alignment : Aligned on interleaves
Interleave, duration : 42 ms (1.00 video frame)
Interleave, preload duration : 512 ms
На трекере есть и другие документальные фильмы, посвящённые истории определённых жанров национального кинематографа
Не совсем Голливуд: потрясающая, нераскрытая история австралийского эксплуатационного кино / Not Quite Hollywood: The Wild, Untold Story of Ozploitation!
Хулиганский кинематограф / Baadasssss Cinema (американский жанр блэксплотейшн)
Девки с мачете на свободе! / Machete Maidens Unleashed! (филиппинское эксплуатационное кино)
[teatrix.ru].t18686.torrent 
Торрент: Зарегистрирован [ 2016-03-17 00:31 ] · 840359EAFE5A2761F0273A4E55760A214819B758

Скачать .torrent

Скачать

21 KB

Статус: проверено
Скачан: 0 раз
Размер: 1.93 GB
terms.php



Показать сообщения:    

Текущее время: 03-Дек 16:45

Часовой пояс: UTC + 3


Вы не можете начинать темы
Вы не можете отвечать на сообщения
Вы не можете редактировать свои сообщения
Вы не можете удалять свои сообщения
Вы не можете голосовать в опросах
Вы не можете прикреплять файлы к сообщениям
Вы можете скачивать файлы