(Classical) Musiques sacrees a Versailles: Lejeune, Du Caurroy, Forme, Moulinie, Bouzignac, Lully, Robert, Charpentier, Campra - Les Pages & les Chantres du Centre de musique baroque de Versailles, Schneebeli - 2012, FLAC (image+.


Статистика раздачи [Обновить пиров]
Размер:  958 MB   |    Зарегистрирован:  8 месяцев 18 дней   |    Скачан:  0 раз

Полного источника не было: Никогда

 
   
 
 
 

[Цитировать]

Musiques sacrées à Versailles: Lejeune, Du Caurroy, Formé, Moulinié, Bouzignac, Lully, Robert, Charpentier, Campra - Les Pages & les Chantres du Centre de musique baroque de Versailles, Schneebeli
Жанр: Classical, sacred
Страна-производитель диска: France
Год издания диска: 2012
Издатель (лейбл): K617
Номер по каталогу: K617234/3
Дата записи: 1993-2010
Аудиокодек: FLAC
Тип рипа: image+.cue
Битрейт аудио: lossless
Продолжительность: 3:26:22
Источник: собственный рип
Наличие сканов в содержимом раздачи: да
Треклист:
Musiques sacrées à Versailles
XXe anniversaire des Pages & des Chantres du Centre de musique baroque de Versailles

CD1: Claude Lejeune – Eustache Du Caurroy

Claude Lejeune (ca 1530-1600)
[1] Muze, honorons ... choeur en l’honneur d’Henri IV
[2] Prince, la France te veut par ces vers sacrer un autel...
[3] Omnes gentes
[4] Adjuro vos filiae Hierusalem motet à double choeur à 8 voix
[5] Tristitia obsedit me
[6] Quand pour Egipte eloigner ... psaumes 114 & 115 à 5 & 6 voix
[7] Louë tous ce Dieu qui est dous psaume à double choeur à 8 voix
[8] Dieu, nous te loüons Te Deum à 6 voix
Eustache du Caurroy (1549-1609)
[9] Prince, la France te veut par ces vers sacrer un autel...
[10] Te Deum

CD2: Nicolas Formé – Etienne Moulinié – Guillaume Bouzignac – Jean-Baptiste Lully

Nicolas Formé (1567-1638)
[1]-[5] Missa duobus choris
[6] Domine salvum fac Regem
[7] Ecce tu pulchra es
Etienne Moulinié (1599-1676)
[8] Litanies de la Vierge
Guillaume Bouzignac (av.1587-ap.1643)
[9] Assumpta est Maria
[10] Ha! Plange filia Jerusalem!
[11] Dum silentium
Jean-Baptiste Lully (1632-1687)
[12]-[23] Miserere mei Deus [LWV25]

CD3: Henry Du Mont – Pierre Robert – Marc-Antoine Charpentier – André Campra – Nicolas Bernier

Henry Du Mont (1610-1684)
[1] Nisi Dominus
Pierre Robert (ca 1625-1699)
[2]-[3] De profundis
Marc-Antoine Charpentier (1643-1704)
[4]-[8] Super flumina Babylonis [H171]
André Campra (1660-1744)
[9] Tota pulchra es
Nicolas Bernier (1665-1734)
[10] Laudate Dominum
Исполнители:
Les Pages & les Chantres du Centre de musique baroque de Versailles
Olivier Schneebeli

Лог создания рипа: CD1

Exact Audio Copy V1.0 beta 3 from 29. August 2011
EAC extraction logfile from 9. May 2014, 1:06
Les Pages & les Chantres du Centre de musique baroque de Versailles, Olivier Schneebeli / Musiques Sacrees a Versailles - CD1
Used drive : HL-DT-STDVDRAM GSA-4083N Adapter: 1 ID: 0
Read mode : Secure
Utilize accurate stream : Yes
Defeat audio cache : Yes
Make use of C2 pointers : No
Read offset correction : 667
Overread into Lead-In and Lead-Out : No
Fill up missing offset samples with silence : Yes
Delete leading and trailing silent blocks : No
Null samples used in CRC calculations : Yes
Used interface : Native Win32 interface for Win NT & 2000
Used output format : User Defined Encoder
Selected bitrate : 896 kBit/s
Quality : High
Add ID3 tag : No
Command line compressor : C:\Program Files\Exact Audio Copy\Flac\flac.exe
Additional command line options : -V -8 %source%
TOC of the extracted CD
Track | Start | Length | Start sector | End sector
---------------------------------------------------------
1 | 0:00.00 | 1:42.39 | 0 | 7688
2 | 1:42.39 | 1:46.23 | 7689 | 15661
3 | 3:28.62 | 5:57.69 | 15662 | 42505
4 | 9:26.56 | 9:04.25 | 42506 | 83330
5 | 18:31.06 | 5:32.22 | 83331 | 108252
6 | 24:03.28 | 6:48.30 | 108253 | 138882
7 | 30:51.58 | 5:36.69 | 138883 | 164151
8 | 36:28.52 | 7:23.01 | 164152 | 197377
9 | 43:51.53 | 1:32.40 | 197378 | 204317
10 | 45:24.18 | 22:24.69 | 204318 | 305186
Range status and errors
Selected range
Filename J:\New Music\K617234 - Musiques Sacrees a Versailles (Les Pages & les Chantres du Centre de musique baroque de Versailles, Schneebeli)\Musiques Sacrees a Versailles - CD1.wav
Peak level 90.3 %
Extraction speed 2.7 X
Range quality 100.0 %
Test CRC 8DD94C68
Copy CRC 8DD94C68
Copy OK
No errors occurred
AccurateRip summary
Track 1 accurately ripped (confidence 1) [0B3FCC6C] (AR v2)
Track 2 accurately ripped (confidence 1) [2AA65C67] (AR v2)
Track 3 accurately ripped (confidence 1) [B3E33E10] (AR v2)
Track 4 accurately ripped (confidence 1) [CCFD8861] (AR v2)
Track 5 accurately ripped (confidence 1) [216BCFC7] (AR v2)
Track 6 accurately ripped (confidence 1) [4555848A] (AR v2)
Track 7 accurately ripped (confidence 1) [74B900FD] (AR v2)
Track 8 accurately ripped (confidence 1) [984B06D4] (AR v2)
Track 9 accurately ripped (confidence 1) [73DB6522] (AR v2)
Track 10 accurately ripped (confidence 1) [A6E1AABC] (AR v2)
All tracks accurately ripped
End of status report
==== Log checksum B543B69D7AE37E4ED66FABBA337ECC90C0CE6A9DE56CEC2BF4902808387308F1 ====

Лог создания рипа: CD2

Exact Audio Copy V1.0 beta 3 from 29. August 2011
EAC extraction logfile from 9. May 2014, 2:38
Les Pages & les Chantres du Centre de musique baroque de Versailles, Olivier Schneebeli / Musiques Sacrees a Versailles - CD2
Used drive : HL-DT-STDVDRAM GSA-4083N Adapter: 1 ID: 0
Read mode : Secure
Utilize accurate stream : Yes
Defeat audio cache : Yes
Make use of C2 pointers : No
Read offset correction : 667
Overread into Lead-In and Lead-Out : No
Fill up missing offset samples with silence : Yes
Delete leading and trailing silent blocks : No
Null samples used in CRC calculations : Yes
Used interface : Native Win32 interface for Win NT & 2000
Used output format : User Defined Encoder
Selected bitrate : 896 kBit/s
Quality : High
Add ID3 tag : No
Command line compressor : C:\Program Files\Exact Audio Copy\Flac\flac.exe
Additional command line options : -V -8 %source%
TOC of the extracted CD
Track | Start | Length | Start sector | End sector
---------------------------------------------------------
1 | 0:00.00 | 1:59.47 | 0 | 8971
2 | 1:59.47 | 4:25.38 | 8972 | 28884
3 | 6:25.10 | 7:20.43 | 28885 | 61927
4 | 13:45.53 | 2:00.34 | 61928 | 70961
5 | 15:46.12 | 2:15.15 | 70962 | 81101
6 | 18:01.27 | 2:02.34 | 81102 | 90285
7 | 20:03.61 | 3:15.67 | 90286 | 104977
8 | 23:19.53 | 10:56.18 | 104978 | 154195
9 | 34:15.71 | 4:21.09 | 154196 | 173779
10 | 38:37.05 | 3:47.70 | 173780 | 190874
11 | 42:25.00 | 4:56.64 | 190875 | 213138
12 | 47:21.64 | 3:18.06 | 213139 | 227994
13 | 50:39.70 | 3:02.08 | 227995 | 241652
14 | 53:42.03 | 1:38.13 | 241653 | 249015
15 | 55:20.16 | 0:59.28 | 249016 | 253468
16 | 56:19.44 | 2:38.43 | 253469 | 265361
17 | 58:58.12 | 1:15.17 | 265362 | 271003
18 | 60:13.29 | 1:55.04 | 271004 | 279632
19 | 62:08.33 | 1:58.14 | 279633 | 288496
20 | 64:06.47 | 1:36.31 | 288497 | 295727
21 | 65:43.03 | 1:26.24 | 295728 | 302201
22 | 67:09.27 | 0:26.50 | 302202 | 304201
23 | 67:36.02 | 1:16.44 | 304202 | 309945
Range status and errors
Selected range
Filename J:\New Music\K617234 - Musiques Sacrees a Versailles (Les Pages & les Chantres du Centre de musique baroque de Versailles, Schneebeli)\Musiques Sacrees a Versailles - CD2.wav
Peak level 99.6 %
Extraction speed 2.7 X
Range quality 100.0 %
Test CRC 6F2B1550
Copy CRC 6F2B1550
Copy OK
No errors occurred
AccurateRip summary
Track 1 accurately ripped (confidence 1) [F9E45ABB] (AR v2)
Track 2 accurately ripped (confidence 1) [8855BF64] (AR v2)
Track 3 accurately ripped (confidence 1) [4E4EC3DE] (AR v2)
Track 4 accurately ripped (confidence 1) [79FDE07D] (AR v2)
Track 5 accurately ripped (confidence 1) [76F4942A] (AR v2)
Track 6 accurately ripped (confidence 1) [7D800083] (AR v2)
Track 7 accurately ripped (confidence 1) [125603AE] (AR v2)
Track 8 accurately ripped (confidence 1) [A816AB1A] (AR v2)
Track 9 accurately ripped (confidence 1) [D03AE1C2] (AR v2)
Track 10 accurately ripped (confidence 1) [3A0F8DF3] (AR v2)
Track 11 accurately ripped (confidence 1) [223FF4CF] (AR v2)
Track 12 accurately ripped (confidence 1) [E9231DC8] (AR v2)
Track 13 accurately ripped (confidence 1) [6C022E0B] (AR v2)
Track 14 accurately ripped (confidence 1) [157BDE4C] (AR v2)
Track 15 accurately ripped (confidence 1) [FF36A2E2] (AR v2)
Track 16 accurately ripped (confidence 1) [A0780B0B] (AR v2)
Track 17 accurately ripped (confidence 1) [A52C0E0F] (AR v2)
Track 18 accurately ripped (confidence 1) [9EFBFB36] (AR v2)
Track 19 accurately ripped (confidence 1) [7EE3EFEA] (AR v2)
Track 20 accurately ripped (confidence 1) [EB9ABFEE] (AR v2)
Track 21 accurately ripped (confidence 1) [09A20935] (AR v2)
Track 22 accurately ripped (confidence 1) [EA737ED6] (AR v2)
Track 23 accurately ripped (confidence 1) [D97EE560] (AR v2)
All tracks accurately ripped
End of status report
==== Log checksum 04D766436B59DF40E8844376CB413FF918C9FB550352C9F7DB36680679EBA337 ====

Лог создания рипа: CD3

Exact Audio Copy V1.0 beta 3 from 29. August 2011
EAC extraction logfile from 10. May 2014, 0:33
Les Pages & les Chantres du Centre de musique baroque de Versailles, Olivier Schneebeli / Musiques Sacrees a Versailles - CD3
Used drive : HL-DT-STDVDRAM GSA-4083N Adapter: 1 ID: 0
Read mode : Secure
Utilize accurate stream : Yes
Defeat audio cache : Yes
Make use of C2 pointers : No
Read offset correction : 667
Overread into Lead-In and Lead-Out : No
Fill up missing offset samples with silence : Yes
Delete leading and trailing silent blocks : No
Null samples used in CRC calculations : Yes
Used interface : Native Win32 interface for Win NT & 2000
Used output format : User Defined Encoder
Selected bitrate : 896 kBit/s
Quality : High
Add ID3 tag : No
Command line compressor : C:\Program Files\Exact Audio Copy\Flac\flac.exe
Additional command line options : -V -8 %source%
TOC of the extracted CD
Track | Start | Length | Start sector | End sector
---------------------------------------------------------
1 | 0:00.00 | 8:54.22 | 0 | 40071
2 | 8:54.22 | 16:03.24 | 40072 | 112320
3 | 24:57.46 | 5:46.01 | 112321 | 138271
4 | 30:43.47 | 3:47.03 | 138272 | 155299
5 | 34:30.50 | 3:02.73 | 155300 | 169022
6 | 37:33.48 | 2:33.55 | 169023 | 180552
7 | 40:07.28 | 3:18.20 | 180553 | 195422
8 | 43:25.48 | 2:40.37 | 195423 | 207459
9 | 46:06.10 | 5:38.28 | 207460 | 232837
10 | 51:44.38 | 17:51.72 | 232838 | 313234
Range status and errors
Selected range
Filename J:\New Music\K617234 - Musiques Sacrees a Versailles (Les Pages & les Chantres du Centre de musique baroque de Versailles, Schneebeli)\Musiques Sacrees a Versailles - CD3.wav
Peak level 96.8 %
Extraction speed 2.8 X
Range quality 100.0 %
Test CRC 24AB7779
Copy CRC 24AB7779
Copy OK
No errors occurred
AccurateRip summary
Track 1 accurately ripped (confidence 1) [A3705E5C] (AR v2)
Track 2 accurately ripped (confidence 1) [B78BA333] (AR v2)
Track 3 accurately ripped (confidence 1) [CF5FC1C8] (AR v2)
Track 4 accurately ripped (confidence 1) [3A2E0132] (AR v2)
Track 5 accurately ripped (confidence 1) [8F0086EA] (AR v2)
Track 6 accurately ripped (confidence 1) [F713E7B0] (AR v2)
Track 7 accurately ripped (confidence 1) [82731487] (AR v2)
Track 8 accurately ripped (confidence 1) [10F6B1D9] (AR v2)
Track 9 accurately ripped (confidence 1) [3EE2B7F1] (AR v2)
Track 10 accurately ripped (confidence 1) [D16003FF] (AR v2)
All tracks accurately ripped
End of status report
==== Log checksum 0C41F12D226C270F09FC811AE5D8E3477AB7221AF5A239E8DB783AE542FCED2C ====
[teatrix.ru].t18688.torrent 
Торрент: Зарегистрирован [ 2016-03-17 00:31 ] · F801D35741777CDD5E5FE870CEF59ED413AAA623

Скачать .torrent

Скачать

40 KB

Статус: проверено
Скачан: 0 раз
Размер: 958 MB
terms.php



Быстрый ответ

Имя:

      
Для отправки сообщений необходимо включить JavaScript
Показать сообщения:    

Текущее время: 04-Дек 04:58

Часовой пояс: UTC + 3


Вы можете начинать темы
Вы можете отвечать на сообщения
Вы не можете редактировать свои сообщения
Вы не можете удалять свои сообщения
Вы не можете голосовать в опросах
Вы не можете прикреплять файлы к сообщениям
Вы можете скачивать файлы