(Classical, contemporary) Carl Rütti (Rutti) - Requiem - Olivia Robinson, Edward Price, The Bach Choir, Southern Sinfonia, Jane Watts, David Hill - 2009, FLAC (image+.cue) lossless


Статистика раздачи [Обновить пиров]
Размер:  195 MB   |    Зарегистрирован:  8 месяцев 21 день   |    Скачан:  0 раз

Полного источника не было: Никогда

 
   
 
 
 

[Цитировать]

Carl Rütti (Rutti) - Requiem - Olivia Robinson, Edward Price, The Bach Choir, Southern Sinfonia, Jane Watts, David Hill
Жанр: Classical, contemporary
Год издания диска: 2009
Издатель (лейбл): Naxos
Номер по каталогу: 8.572317
Дата записи: 2009
Аудиокодек: FLAC
Тип рипа: image+.cue
Битрейт аудио: lossless
Продолжительность: 55:02
Источник: собственный рип
Наличие сканов в содержимом раздачи: да
Треклист:
Carl Rütti (b. 1949)
[1]-[7] Requiem
Исполнители:
Olivia Robinson soprano
Edward Price baritone
The Bach Choir
Southern Sinfonia
Jane Watts
organ
David Hill

Лог создания рипа

Exact Audio Copy V1.0 beta 3 from 29. August 2011
EAC extraction logfile from 25. March 2014, 17:06
Robinson, Price, The Bach Choir, Southern Sinfonia, David Hill / Rutti - Requiem
Used drive : HL-DT-STDVDRRW GWA-4164B Adapter: 5 ID: 0
Read mode : Secure
Utilize accurate stream : Yes
Defeat audio cache : Yes
Make use of C2 pointers : No
Read offset correction : 102
Overread into Lead-In and Lead-Out : No
Fill up missing offset samples with silence : Yes
Delete leading and trailing silent blocks : No
Null samples used in CRC calculations : Yes
Used interface : Native Win32 interface for Win NT & 2000
Used output format : User Defined Encoder
Selected bitrate : 896 kBit/s
Quality : High
Add ID3 tag : No
Command line compressor : C:\Program Files\Exact Audio Copy\FLAC\FLAC.EXE
Additional command line options : -V -8 %source%
TOC of the extracted CD
Track | Start | Length | Start sector | End sector
---------------------------------------------------------
1 | 0:00.00 | 9:28.55 | 0 | 42654
2 | 9:28.55 | 5:02.11 | 42655 | 65315
3 | 14:30.66 | 12:41.19 | 65316 | 122409
4 | 27:12.10 | 6:09.39 | 122410 | 150123
5 | 33:21.49 | 5:15.29 | 150124 | 173777
6 | 38:37.03 | 6:11.69 | 173778 | 201671
7 | 44:48.72 | 10:11.03 | 201672 | 247499
Range status and errors
Selected range
Filename D:\temp\Music\Naxos_8.572317 - Rutti - Requiem\Rutti - Requiem.wav
Peak level 100.0 %
Extraction speed 1.6 X
Range quality 100.0 %
Test CRC 9DA9D469
Copy CRC 9DA9D469
Copy OK
No errors occurred
AccurateRip summary
Track 1 accurately ripped (confidence 6) [77915D0A] (AR v2)
Track 2 accurately ripped (confidence 6) [A767E7AC] (AR v2)
Track 3 accurately ripped (confidence 6) [2BDC5244] (AR v2)
Track 4 accurately ripped (confidence 6) [CD190106] (AR v2)
Track 5 accurately ripped (confidence 6) [FCD57FB1] (AR v2)
Track 6 accurately ripped (confidence 6) [FA6D9149] (AR v2)
Track 7 accurately ripped (confidence 6) [3E71CC44] (AR v2)
All tracks accurately ripped
End of status report
==== Log checksum DD747A6C8589EF890B241C09A52BE6D744C84831118AE681A2868C9A73B1C350 ====
[teatrix.ru].t18700.torrent 
Торрент: Зарегистрирован [ 2016-03-17 00:30 ] · 1D418E9C920323394871468C773B8D7FAECBF43A

Скачать .torrent

Скачать

32 KB

Статус: проверено
Скачан: 0 раз
Размер: 195 MB
terms.php



Быстрый ответ

Имя:

      
Для отправки сообщений необходимо включить JavaScript
Показать сообщения:    

Текущее время: 07-Дек 15:30

Часовой пояс: UTC + 3


Вы можете начинать темы
Вы можете отвечать на сообщения
Вы не можете редактировать свои сообщения
Вы не можете удалять свои сообщения
Вы не можете голосовать в опросах
Вы не можете прикреплять файлы к сообщениям
Вы можете скачивать файлы