(Classical) Ludwig Guttler & Friedrich Kircheis - Музыка для трубы и органа (Bach,Telemann,Krebs,Reger,Thiele) - 2007, FLAC (image+.cue) lossless


Статистика раздачи [Обновить пиров]
Размер:  251 MB   |    Зарегистрирован:  8 месяцев 24 дня   |    Скачан:  1 раз

Полного источника не было: 3 месяца 11 дней

 
   
 
 
 

[Цитировать]

Ludwig Guttler & Friedrich Kircheis - Музыка для трубы и органа (Bach,Telemann,Krebs,Reger,Thiele)
Жанр: Classical
Страна-производитель диска: Россия
Год издания диска: 2007
Издатель (лейбл): Classical Paradise
Номер по каталогу: CP010
Дата записи: 1991
Аудиокодек: FLAC
Тип рипа: image+.cue
Битрейт аудио: lossless
Продолжительность: 0:62:03
Источник: собственный рип
Наличие сканов в содержимом раздачи: да
Треклист:
01: Johann Sebastian Bach (1685-1750) - Wachet auf ruft uns die Stimme
02: Georg Philipp Telemann (1681-1767) - Concerto in D dur: Allegro
03: - Adagio - Aria - Adagio
04: - Vivace
05: Johann Ludwig Krebs (1713-1780) - a) O Gott, du frommer Gott
06: - b) Gott der Vater wohn' uns bei
07: Max Reger (1873-1916) - a) O Welt, ich muss dich lassen, OP 67 Nr 4
08: - b) Jerusalem,du hochgebaute Stadt, op - 67 Nr - 18
09: Johann Sebastian Bach - a) Jesu bleibet meine Freude, BWV 147,10
10: - b) Herr Jesu Christ, du hochstes Gut, BWV 166,3
11: - c) Was Gott tut, das ist wohlgetan, BWV 75,8
12: Siegfried Thiele (geboren 1934) - Music for Organ and Trumpet
13: Max Reger (1873-1916) - a) Nun danket all e Gott, op - 67 Nr - 28
14: - b) Vater unser im Himmelreich, op - 67 Nr - 41
15: - c) Valet will ich dir geben, op - 67 Nr - 40
16: - d) Es ist das Heil uns kommen her, op - 67 Nr - 10
Исполнители:
Ludwig Guttler: труба и corno da cacchia,
Friedrich Kircheis: орган

Лог создания рипа

Exact Audio Copy V0.99 prebeta 5 from 4. May 2009
Отчёт EAC об извлечении, выполненном 6. июня 2014, 20:51
Ludwig Gьttler / Ludwig Gьttler - Friedrich Kircheis
Дисковод: _NEC DVD_RW ND-4550A Adapter: 0 ID: 0
Режим чтения : Достоверность
Использование точного потока : Да
Отключение кэша аудио : Да
Использование указателей C2 : Нет
Коррекция смещения при чтении : 48
Способность читать области Lead-in и Lead-out : Нет
Заполнение пропущенных сэмплов тишиной : Да
Удаление блоков с тишиной в начале и конце : Нет
При вычислениях CRC использовались нулевые сэмплы : Да
Интерфейс : Встроенный Win32-интерфейс для Win NT/2000
Выходной формат : Внутренние WAV-операции
Формат сэмплов : 44.100 Гц; 16 бит; стерео
TOC извлечённого CD
Трек | Старт | Длительность | Начальный сектор | Конечный сектор
---------------------------------------------------------------------
1 | 0:00.00 | 4:15.08 | 0 | 19132
2 | 4:15.08 | 3:29.39 | 19133 | 34846
3 | 7:44.47 | 6:07.73 | 34847 | 62444
4 | 13:52.45 | 2:43.02 | 62445 | 74671
5 | 16:35.47 | 4:35.35 | 74672 | 95331
6 | 21:11.07 | 4:57.65 | 95332 | 117671
7 | 26:08.72 | 2:40.51 | 117672 | 129722
8 | 28:49.48 | 1:42.37 | 129723 | 137409
9 | 30:32.10 | 3:13.62 | 137410 | 151946
10 | 33:45.72 | 3:40.50 | 151947 | 168496
11 | 37:26.47 | 3:33.16 | 168497 | 184487
12 | 40:59.63 | 10:49.34 | 184488 | 233196
13 | 51:49.22 | 1:42.30 | 233197 | 240876
14 | 53:31.52 | 3:56.70 | 240877 | 258646
15 | 57:28.47 | 2:51.52 | 258647 | 271523
16 | 60:20.24 | 1:36.18 | 271524 | 278741
Характеристики диапазона извлечения и сообщения об ошибках
Выбранный диапазон
Имя файла C:\EACresult\Ludwig Gьttler - Ludwig Gьttler - Friedrich Kircheis.wav
Пиковый уровень 100.0 %
Качество диапазона 99.9 %
CRC теста 4A92214C
CRC копии 4A92214C
Копирование... OK
Ошибок не произошло
AccurateRip: сводка
Трек 1 точное извлечение (доверие 1) [A47F3914]
Трек 2 точное извлечение (доверие 1) [867C4AA0]
Трек 3 точное извлечение (доверие 1) [15D19029]
Трек 4 точное извлечение (доверие 1) [493B39C6]
Трек 5 точное извлечение (доверие 1) [A4B0793D]
Трек 6 точное извлечение (доверие 1) [40EAD3D1]
Трек 7 точное извлечение (доверие 1) [15054A32]
Трек 8 точное извлечение (доверие 1) [6F9C84E3]
Трек 9 точное извлечение (доверие 1) [4BF70C3B]
Трек 10 точное извлечение (доверие 1) [969E175D]
Трек 11 точное извлечение (доверие 1) [E5FEA8C7]
Трек 12 точное извлечение (доверие 1) [1F565AB6]
Трек 13 точное извлечение (доверие 1) [83A46A67]
Трек 14 точное извлечение (доверие 1) [EC559A62]
Трек 15 точное извлечение (доверие 1) [A33E377D]
Трек 16 точное извлечение (доверие 1) [F02CCAA3]
Все треки извлечены точно
Конец отчёта

Содержание индексной карты (.CUE)

REM GENRE Classical
REM DATE 1990
REM DISCID CE0E8410
REM COMMENT "ExactAudioCopy v0.99pb5"
PERFORMER "Ludwig Gьttler"
TITLE "Ludwig Gьttler - Friedrich Kircheis"
FILE "Ludwig Gьttler - Ludwig Gьttler - Friedrich Kircheis.flac" WAVE
TRACK 01 AUDIO
TITLE "Johann Sebastian Bach (1685-1750)_Wachet auf ruft uns die Stimme"
PERFORMER "Ludwig Gьttler"
INDEX 01 00:00:00
TRACK 02 AUDIO
TITLE "Georg Philipp Telemann (1681-1767)_ Concerto in D dur Allegro"
PERFORMER "Ludwig Gьttler"
INDEX 01 04:15:08
TRACK 03 AUDIO
TITLE "Georg Philipp Telemann (1681-1767)_ Concerto in D dur Adagio - Aria - Adagio"
PERFORMER "Ludwig Gьttler"
INDEX 01 07:44:47
TRACK 04 AUDIO
TITLE "Georg Philipp Telemann (1681-1767)_ Concerto in D dur Vivace"
PERFORMER "Ludwig Gьttler"
INDEX 00 13:52:42
INDEX 01 13:52:45
TRACK 05 AUDIO
TITLE "Johann Ludwig Krebs (1713-1780)_a) O Gott, du frommer Gott"
PERFORMER "Ludwig Gьttler"
INDEX 01 16:35:47
TRACK 06 AUDIO
TITLE "Johann Ludwig Krebs (1713-1780)_b) Gott der Vater wohn' uns bei"
PERFORMER "Ludwig Gьttler"
INDEX 01 21:11:07
TRACK 07 AUDIO
TITLE "Max Reger (1873-1916)_ a) O Welt, ich muss dich lassen, OP 67 Nr 4"
PERFORMER "Ludwig Gьttler"
INDEX 01 26:08:72
TRACK 08 AUDIO
TITLE "Max Reger (1873-1916)_ b) Jerusalem,du hochgebaute Stadt, op_ 67 Nr_ 18"
PERFORMER "Ludwig Gьttler"
INDEX 01 28:49:48
TRACK 09 AUDIO
TITLE "Johann Sebastian Bach (1685-1750)_ a) Jesu bleibet meine Freude, BWV 147,10"
PERFORMER "Ludwig Gьttler"
INDEX 01 30:32:10
TRACK 10 AUDIO
TITLE "Johann Sebastian Bach (1685-1750)_ b) Herr Jesu Christ, du hochstes Gut, BWV ..."
PERFORMER "Ludwig Gьttler"
INDEX 01 33:45:72
TRACK 11 AUDIO
TITLE "Johann Sebastian Bach (1685-1750)_ c) 'Was Gott tut, das ist wohlgetan, BWV 75,8"
PERFORMER "Ludwig Gьttler"
INDEX 01 37:26:47
TRACK 12 AUDIO
TITLE "Siegfried Thiele (geboren 1934)_ Music for Organ and Trumpet"
PERFORMER "Ludwig Gьttler"
INDEX 01 40:59:63
TRACK 13 AUDIO
TITLE "Max Reger (1873-1916)_ a) Nun danket all e Gott, op_ 67 Nr_ 28"
PERFORMER "Ludwig Gьttler"
INDEX 01 51:49:22
TRACK 14 AUDIO
TITLE "Max Reger (1873-1916)_ b)Vater unser im Himmelreich, op_ 67 Nr_ 41"
PERFORMER "Ludwig Gьttler"
INDEX 01 53:31:52
TRACK 15 AUDIO
TITLE "Max Reger (1873-1916)_ c) Valet will ich dir geben, op_ 67 Nr_ 40"
PERFORMER "Ludwig Gьttler"
INDEX 01 57:28:47
TRACK 16 AUDIO
TITLE "Max Reger (1873-1916)_ d) Es ist das Heil uns kommen her, op_ 67 Nr_ 10"
PERFORMER "Ludwig Gьttler"
INDEX 01 60:20:24
Доп. информация: орган из церкви Св.Фомы, Лейпциг
[teatrix.ru].t18714.torrent 
Торрент: Зарегистрирован [ 2016-03-17 00:23 ] · 443BD2877BE653E02DD3BEE638387D94492C7016

Скачать .torrent

Скачать

21 KB

Статус: проверено
Скачан: 1 раз
Размер: 251 MB
terms.php



Быстрый ответ

Имя:

      
Для отправки сообщений необходимо включить JavaScript
Показать сообщения:    

Текущее время: 10-Дек 07:56

Часовой пояс: UTC + 3


Вы можете начинать темы
Вы можете отвечать на сообщения
Вы не можете редактировать свои сообщения
Вы не можете удалять свои сообщения
Вы не можете голосовать в опросах
Вы не можете прикреплять файлы к сообщениям
Вы можете скачивать файлы