(Choral) Beethoven - Missa Solemnis For Four Solo Voices, Choir, Orchestra and Organ (Bryn-Julson, Lipovsek, Protschka, Rydl - Philharmonischer Chor Prag, Matl) - 1992, FLAC (image+.cue) lossless


Статистика раздачи [Обновить пиров]
Размер:  287 MB   |    Зарегистрирован:  8 месяцев 18 дней   |    Скачан:  0 раз

Полного источника не было: Никогда

 
   
 
 
 

[Цитировать]

Beethoven - Missa Solemnis For Four Solo Voices, Choir, Orchestra and Organ
Жанр: Choral
Страна-производитель диска: The Netherlands
Год издания диска: 1992
Издатель (лейбл): Point Productions
Номер по каталогу: 2650582
Дата записи: 1987
Аудиокодек: FLAC
Тип рипа: image+.cue
Битрейт аудио: lossless
Продолжительность: 74'35
Источник: собственный рип
Наличие сканов в содержимом раздачи: да
Треклист:
1. Kyrie
2. Gloria
3. Credo
4. Sanctus
5. Agnus Dei
Исполнители:
Ludwig van Beethoven - Missa Solemnis For Four Solo, Voices, Choir, Orchestra and Organ
Phyllis Bryn-Julson, soprano
Marjana Lipovsek, alto
Josef Protschka, tenor
Kurt Rydl, bass
Philharmonic Choir Prag
Lubomir Mátl

Лог создания рипа

Exact Audio Copy V1.0 beta 3 from 29. August 2011
EAC extraction logfile from 17. May 2014, 11:56
Beethoven / Missa Solemnis For Four Solo, Voices, Choir, Orchestra and Organ, Matl
Used drive : TS8XDVDSTRANSCEND Adapter: 1 ID: 0
Read mode : Secure
Utilize accurate stream : Yes
Defeat audio cache : Yes
Make use of C2 pointers : No
Read offset correction : 6
Overread into Lead-In and Lead-Out : No
Fill up missing offset samples with silence : Yes
Delete leading and trailing silent blocks : No
Null samples used in CRC calculations : Yes
Used interface : Native Win32 interface for Win NT & 2000
Used output format : User Defined Encoder
Selected bitrate : 896 kBit/s
Quality : High
Add ID3 tag : No
Command line compressor : C:\Program Files (x86)\Exact Audio Copy\FLAC\FLAC.EXE
Additional command line options : -6 -V -T "ARTIST=%artist%" -T "TITLE=%title%" -T "ALBUM=%albumtitle%" -T "DATE=%year%" -T "TRACKNUMBER=%tracknr%" -T "GENRE=%genre%" -T "COMMENT=%comment%" -T "BAND=%albuminterpret%" -T "ALBUMARTIST=%albuminterpret%" -T "COMPOSER=%composer%" %haslyrics%--tag-from-file=LYRICS="%lyricsfile%"%haslyrics% -T "DISCNUMBER=%cdnumber%" -T "TOTALDISCS=%totalcds%" -T "TOTALTRACKS=%numtracks%" %hascover%--picture="%coverfile%"%hascover% %source% -o %dest%
TOC of the extracted CD
Track | Start | Length | Start sector | End sector
---------------------------------------------------------
1 | 0:00.00 | 9:35.55 | 0 | 43179
2 | 9:35.55 | 16:24.73 | 43180 | 117052
3 | 26:00.53 | 19:06.52 | 117053 | 203054
4 | 45:07.30 | 15:12.25 | 203055 | 271479
5 | 60:19.55 | 14:15.50 | 271480 | 335654
Range status and errors
Selected range
Filename D:\EAC\Beethoven - Missa Solemnis For Four Solo, Voices, Choir, Orchestra and Organ, Matl.wav
Peak level 73.0 %
Extraction speed 2.2 X
Range quality 99.9 %
Test CRC 41CEB488
Copy CRC 41CEB488
Copy OK
No errors occurred
AccurateRip summary
Track 1 accurately ripped (confidence 2) [A95402FB] (AR v2)
Track 2 accurately ripped (confidence 2) [F1DDC921] (AR v2)
Track 3 accurately ripped (confidence 2) [1C15D9AC] (AR v2)
Track 4 accurately ripped (confidence 2) [F1803383] (AR v2)
Track 5 accurately ripped (confidence 2) [CC0D03FB] (AR v2)
All tracks accurately ripped
End of status report
---- CUETools DB Plugin V2.1.3
[CTDB TOCID: Q5iG0sY7rvKTK2S.tmnt0RAfReE-] disk not present in database, Submit result: unrecognized or virtual drive
==== Log checksum AEF08924378D78F01D0F829AD308461307DF49F1532615B5335F87198582A7BD ====

Содержание индексной карты (.CUE)

REM GENRE Choral
REM DATE 1987
REM DISCID 41117B05
REM COMMENT "ExactAudioCopy v1.0b3"
PERFORMER "Beethoven"
TITLE "Missa Solemnis For Four Solo, Voices, Choir, Orchestra and Organ, Matl"
FILE "Beethoven - Missa Solemnis For Four Solo, Voices, Choir, Orchestra and Organ, Matl.flac" WAVE
TRACK 01 AUDIO
TITLE "Kyrie"
PERFORMER "Beethoven"
INDEX 01 00:00:00
TRACK 02 AUDIO
TITLE "Gloria"
PERFORMER "Beethoven"
INDEX 00 09:34:68
INDEX 01 09:35:55
TRACK 03 AUDIO
TITLE "Credo"
PERFORMER "Beethoven"
INDEX 00 25:54:65
INDEX 01 26:00:53
TRACK 04 AUDIO
TITLE "Sanctus"
PERFORMER "Beethoven"
INDEX 00 44:59:33
INDEX 01 45:07:30
TRACK 05 AUDIO
TITLE "Agnus Dei"
PERFORMER "Beethoven"
INDEX 00 60:15:30
INDEX 01 60:19:55
[teatrix.ru].t18716.torrent 
Торрент: Зарегистрирован [ 2016-03-17 00:23 ] · 5ACB21F16EC3F0C89A87864236D55A65E9A5BEBC

Скачать .torrent

Скачать

12 KB

Статус: проверено
Скачан: 0 раз
Размер: 287 MB
terms.php



Быстрый ответ

Имя:

      
Для отправки сообщений необходимо включить JavaScript
Показать сообщения:    

Текущее время: 04-Дек 09:09

Часовой пояс: UTC + 3


Вы можете начинать темы
Вы можете отвечать на сообщения
Вы не можете редактировать свои сообщения
Вы не можете удалять свои сообщения
Вы не можете голосовать в опросах
Вы не можете прикреплять файлы к сообщениям
Вы можете скачивать файлы