Праздничный концерт ко дню России "Россия Молодая" / МузТв [12.06.2014, Документальный, DVB]


Статистика раздачи [Обновить пиров]
Размер:  6.71 GB   |    Зарегистрирован:  8 месяцев 24 дня   |    Скачан:  0 раз

Полного источника не было: Никогда

 
   
 
 
 

[Цитировать]

-Праздничный концерт ко дню России "Россия Молодая"-Жанр: Документальный, Музыка
Дата/Год выпуска: 12.06.2014
Язык комментариев: Русский
Перевод: Не требуется
Телеканал: МузТв

-Автор рипа/записи: Arsenal15-Качество: DVB
Формат видео: ts
Видео: 720х576@768х576 (16:9), 25,000 кадров/сек, MPEG2, ~5000 Кбит/сек
Аудио: 48,0 КГц, MP2, 2 ch, ~192 Кбит/сек
-

Продолжительность

02:53:40
-

MediaInfo

Общее
Идентификатор : 1 (0x1)
Полное имя : L:\Мои релизы\Праздничный концерт ко дню России Россия Молодая МузТв.ts
Формат : MPEG-TS
Размер файла : 6,71 Гбайт
Продолжительность : 2 ч. 53 м.
Режим общего битрейта : Переменный
Общий поток : 5532 Кбит/сек
Видео
Идентификатор : 4096 (0x1000)
Идентификатор меню : 1 (0x1)
Формат : MPEG Video
Версия формата : Version 2
Профиль формата : Main@Main
Параметр BVOP формата : Да
Параметр матрицы формата : По умолчанию
Параметр GOP формата : M=3, N=15
Идентификатор кодека : 2
Продолжительность : 2 ч. 53 м.
Вид битрейта : Переменный
Битрейт : 5064 Кбит/сек
Максимальный битрейт : 5120 Кбит/сек
Ширина : 720 пикселей
Высота : 576 пикселей
Соотношение сторон : 16:9
Частота кадров : 25,000 кадров/сек
Стандарт вещания : PAL
Цветовое пространство : YUV
Субдискретизация насыщенности : 4:2:0
Битовая глубина : 8 бит
Тип развёртки : Прогрессивная
Порядок развёртки : Верхнее поле первое
Метод сжатия : С потерями
Бит/(Пиксели*Кадры) : 0.488
Размер потока : 6,14 Гбайт (92%)
Основные цвета : BT.601 PAL
Характеристики трансфера : BT.470 System B, BT.470 System G
Коэффициенты матрицы : BT.601
Аудио
Идентификатор : 4097 (0x1001)
Идентификатор меню : 1 (0x1)
Формат : MPEG Audio
Версия формата : Version 1
Профиль формата : Layer 2
Идентификатор кодека : 3
Продолжительность : 2 ч. 53 м.
Вид битрейта : Постоянный
Битрейт : 192 Кбит/сек
Каналы : 2 канала
Частота : 48,0 КГц
Метод сжатия : С потерями
Задержка видео : 15 мс.
Размер потока : 239 Мбайт (3%)
Язык : English
- -
[teatrix.ru].t18717.torrent 
Торрент: Зарегистрирован [ 2016-03-17 00:23 ] · 4F63F55D037DEBAE46DA6C205FA9F57C62E3290E

Скачать .torrent

Скачать

34 KB

Статус: проверено
Скачан: 0 раз
Размер: 6.71 GB
terms.php



Быстрый ответ

Имя:

      
Для отправки сообщений необходимо включить JavaScript
Показать сообщения:    

Текущее время: 10-Дек 23:26

Часовой пояс: UTC + 3


Вы можете начинать темы
Вы можете отвечать на сообщения
Вы не можете редактировать свои сообщения
Вы не можете удалять свои сообщения
Вы не можете голосовать в опросах
Вы не можете прикреплять файлы к сообщениям
Вы можете скачивать файлы