(Classical) Jean Barraque - Complete Works (Oeuvres Completes) (Sylvain Cambreling, Peter Rundel, Jurg Wyttenbach; Klangforum Wien, Vokalensemble NOVA Wien) - 1998, FLAC (image+.cue) lossless


Статистика раздачи [Обновить пиров]
Размер:  919 MB   |    Зарегистрирован:  8 месяцев 17 дней   |    Скачан:  0 раз

Полного источника не было: Никогда

 
   
 
 
 

[Цитировать]

Jean Barraque - Complete Works (Sylvain Cambreling, Peter Rundel, Jurg Wyttenbach; Klangforum Wien, Vokalensemble NOVA Wien)
Жанр: Classical
Год издания диска: 1998
Издатель (лейбл): CPO
Номер по каталогу: 999 569-2
Аудиокодек: FLAC
Тип рипа: image+.cue
Битрейт аудио: lossless
Продолжительность: CD1'73:10, CD2'70:08, CD3'74:32
Источник: скачано из сети
Наличие сканов в содержимом раздачи: да
Треклист:
CD 1
01. Concerto [0:33:43.52]
02. Le temps restitué - La loi et le temps [0:05:17.23]
03. Symbole de nuit [0:08:13.42]
04. Portail de la terreur [0:10:28.25]
05. L'inachevement sans cesse [0:06:56.15]
06. Car ce n'est que par erreur [0:08:31.48]
CD 2
01. ...au delà du hasard: La nuit sans rayons [0:04:51.47]
02. Incapables... [0:07:58.13]
03. Quelles marques... [0:02:17.10]
04. La démesure... [0:07:15.50]
05. Dans la multitude... [0:02:39.02]
06. Instrumental 1 [0:01:01.45]
07. Pour la lisière... [0:04:20.30]
08. Instrumental 2 [0:00:57.40]
09. Avant la citation [0:01:18.30]
10. Aveuglé par le rêve [0:02:26.50]
11. Instrumental 3 [0:00:28.33]
12. ...au delà des droites lignes [0:02:13.40]
13. D'une pensée sans nuit [0:04:09.65]
14. Chant après chant [0:23:04.35]
15. Etude [0:05:06.03]
CD 3
01. Séquence [0:20:05.07]
02. Sonate pour piano: premiére partie [0:28:51.40]
03. deuxiéme partie [0:25:35.28]
Исполнители:
Conductors: Sylvain Cambreling, Peter Rundel, Jurg Wyttenbach
Ensembles: Klangforum Wien, Vokalensemble NOVA Wien
Performers: Christina Ascher, Claudia Barainsky, Deborah Johnson-Miles, Charlie Fischer, Rosemary Hardy, Stefan Litwin, Julie Moffat, Ernesto Molinari, Florian Muller, Bernhard Zachhuber

LOG EACCD 1

Exact Audio Copy V1.0 beta 3 from 29. August 2011
EAC extraction logfile from 10. June 2014, 0:51
Jean Barraqué / Oeuvres completes (cd 1)
Used drive : TSSTcorpCDDVDW SH-S223C Adapter: 2 ID: 1
Read mode : Secure
Utilize accurate stream : Yes
Defeat audio cache : Yes
Make use of C2 pointers : No
Read offset correction : 697
Overread into Lead-In and Lead-Out : No
Fill up missing offset samples with silence : Yes
Delete leading and trailing silent blocks : No
Null samples used in CRC calculations : Yes
Used interface : Native Win32 interface for Win NT & 2000
Used output format : User Defined Encoder
Selected bitrate : 1024 kBit/s
Quality : High
Add ID3 tag : No
Command line compressor : C:\Program Files (x86)\Exact Audio Copy\FLAC\FLAC.EXE
Additional command line options : -V -0 -T "COMMENT=Ripped by Tapaz9" -T "artist=%artist%" -T "title=%title%" -T "album=%albumtitle%" -T "date=%year%" -T "tracknumber=%tracknr%" -T "genre=%genre%" %source%
TOC of the extracted CD
Track | Start | Length | Start sector | End sector
---------------------------------------------------------
1 | 0:00.00 | 33:43.52 | 0 | 151776
2 | 33:43.52 | 5:17.23 | 151777 | 175574
3 | 39:01.00 | 8:13.42 | 175575 | 212591
4 | 47:14.42 | 10:28.25 | 212592 | 259716
5 | 57:42.67 | 6:56.15 | 259717 | 290931
6 | 64:39.07 | 8:31.48 | 290932 | 329304
Range status and errors
Selected range
Filename F:\Musique\Barraque, Jean\Barraque_CompleteWorks\CD 1\Jean Barraqué - Oeuvres completes (cd 1).wav
Peak level 99.2 %
Extraction speed 14.6 X
Range quality 99.9 %
Copy CRC C0A9C5D2
Copy OK
No errors occurred
End of status report
==== Log checksum FAB86ED148788C81B9AAA535EE808B76867DD9ABF33FBCBE89DBAC173B032BFE ====

CD 2

Exact Audio Copy V1.0 beta 3 from 29. August 2011
EAC extraction logfile from 10. June 2014, 1:00
Jean Barraqué / Oeuvres completes (cd 2)
Used drive : TSSTcorpCDDVDW SH-S223C Adapter: 2 ID: 1
Read mode : Secure
Utilize accurate stream : Yes
Defeat audio cache : Yes
Make use of C2 pointers : No
Read offset correction : 697
Overread into Lead-In and Lead-Out : No
Fill up missing offset samples with silence : Yes
Delete leading and trailing silent blocks : No
Null samples used in CRC calculations : Yes
Used interface : Native Win32 interface for Win NT & 2000
Used output format : User Defined Encoder
Selected bitrate : 1024 kBit/s
Quality : High
Add ID3 tag : No
Command line compressor : C:\Program Files (x86)\Exact Audio Copy\FLAC\FLAC.EXE
Additional command line options : -V -0 -T "COMMENT=Ripped by Tapaz9" -T "artist=%artist%" -T "title=%title%" -T "album=%albumtitle%" -T "date=%year%" -T "tracknumber=%tracknr%" -T "genre=%genre%" %source%
TOC of the extracted CD
Track | Start | Length | Start sector | End sector
---------------------------------------------------------
1 | 0:00.00 | 4:51.47 | 0 | 21871
2 | 4:51.47 | 7:58.13 | 21872 | 57734
3 | 12:49.60 | 2:17.10 | 57735 | 68019
4 | 15:06.70 | 7:15.50 | 68020 | 100694
5 | 22:22.45 | 2:39.02 | 100695 | 112621
6 | 25:01.47 | 1:01.45 | 112622 | 117241
7 | 26:03.17 | 4:20.30 | 117242 | 136771
8 | 30:23.47 | 0:57.40 | 136772 | 141086
9 | 31:21.12 | 1:18.30 | 141087 | 146966
10 | 32:39.42 | 2:26.50 | 146967 | 157966
11 | 35:06.17 | 0:28.33 | 157967 | 160099
12 | 35:34.50 | 2:13.40 | 160100 | 170114
13 | 37:48.15 | 4:09.65 | 170115 | 188854
14 | 41:58.05 | 23:04.35 | 188855 | 292689
15 | 65:02.40 | 5:06.03 | 292690 | 315642
Range status and errors
Selected range
Filename F:\Musique\Barraque, Jean\Barraque_CompleteWorks\CD 2\Jean Barraqué - Oeuvres completes (cd 2).wav
Peak level 100.0 %
Extraction speed 15.6 X
Range quality 100.0 %
Copy CRC CE5E5582
Copy OK
No errors occurred
End of status report
==== Log checksum DEF35DD7DC4B1380058D0887BD599216B9D5AA50D67B1257E53EE739049C3B83 ====

CD 3

Exact Audio Copy V1.0 beta 3 from 29. August 2011
EAC extraction logfile from 10. June 2014, 1:08
Jean Barraqué / Oeuvres completes (cd 3)
Used drive : TSSTcorpCDDVDW SH-S223C Adapter: 2 ID: 1
Read mode : Secure
Utilize accurate stream : Yes
Defeat audio cache : Yes
Make use of C2 pointers : No
Read offset correction : 697
Overread into Lead-In and Lead-Out : No
Fill up missing offset samples with silence : Yes
Delete leading and trailing silent blocks : No
Null samples used in CRC calculations : Yes
Used interface : Native Win32 interface for Win NT & 2000
Used output format : User Defined Encoder
Selected bitrate : 1024 kBit/s
Quality : High
Add ID3 tag : No
Command line compressor : C:\Program Files (x86)\Exact Audio Copy\FLAC\FLAC.EXE
Additional command line options : -V -0 -T "COMMENT=Ripped by Tapaz9" -T "artist=%artist%" -T "title=%title%" -T "album=%albumtitle%" -T "date=%year%" -T "tracknumber=%tracknr%" -T "genre=%genre%" %source%
TOC of the extracted CD
Track | Start | Length | Start sector | End sector
---------------------------------------------------------
1 | 0:00.00 | 20:05.07 | 0 | 90381
2 | 20:05.07 | 28:51.40 | 90382 | 220246
3 | 48:56.47 | 25:35.28 | 220247 | 335399
Range status and errors
Selected range
Filename F:\Musique\Barraque, Jean\Barraque_CompleteWorks\CD 3\Jean Barraqué - Oeuvres completes (cd 3).wav
Peak level 99.9 %
Extraction speed 15.5 X
Range quality 100.0 %
Copy CRC A05C8224
Copy OK
No errors occurred
End of status report
==== Log checksum D795C964BF29DAD806C51A4574BD28929CE2994C8A5FDD3B684BE8092795DF80 ====
mp3
[teatrix.ru].t18733.torrent 
Торрент: Зарегистрирован [ 2016-03-17 00:23 ] · AC7077AE665934C4F3AF41EE93BAC72683508AD1

Скачать .torrent

Скачать

22 KB

Статус: проверено
Скачан: 0 раз
Размер: 919 MB
terms.php



Быстрый ответ

Имя:

      
Для отправки сообщений необходимо включить JavaScript
Показать сообщения:    

Текущее время: 03-Дек 16:47

Часовой пояс: UTC + 3


Вы можете начинать темы
Вы можете отвечать на сообщения
Вы не можете редактировать свои сообщения
Вы не можете удалять свои сообщения
Вы не можете голосовать в опросах
Вы не можете прикреплять файлы к сообщениям
Вы можете скачивать файлы