(Classical) Сергей Рахманинов - Концерт для фортепиано с оркестром №3,Cергей Прокофьев - Концерт для фортепиано с оркестром №2 (Yuja Wang;Simon Bolivar Symphony Orchestra of Venezuela/Gustavo Dudamel) - 2013, FLAC (image+.cue) lossless


Статистика раздачи [Обновить пиров]
Размер:  285 MB   |    Зарегистрирован:  8 месяцев 24 дня   |    Скачан:  0 раз

Полного источника не было: Никогда

 
   
 
 
 

[Цитировать]

Сергей Рахманинов- Концерт для фортепиано с оркестром №3,
Cергей Прокофьев - Концерт для фортепиано с оркестром №2
(Yuja Wang;Simon Bolivar Symphony Orchestra of Venezuela/Gustavo Dudamel)
Жанр: Classical
Страна-производитель диска: E.U.
Год издания диска: 2013
Издатель (лейбл): Deutsche Grammophon
Номер по каталогу: 479 1304
Дата записи: 2/2013
Аудиокодек: FLAC
Тип рипа: image+.cue
Битрейт аудио: lossless
Продолжительность: 01:11:49
Источник: JVA
Наличие сканов в содержимом раздачи: да
Треклист:
Sergei Rachmaninov (1873-1943)
Piano Concerto No. 3 in D minor op 30
01. I. Allegro ma non tanto (15:50)
02. II.Intermezzo. Adagio (10:38)
03. III. Finale. Alla breve (14:17)
Sergei Prokofiev (1891-1953)
Piano Concerto No. 2 in G minor op 16
04. I. Andantino - Allegretto (11:02)
05. II. Scherzo. Vivace (2:22)
06. III. Intermezzo. Allegro moderato (6:35)
07. IV. Finale. Allegro tempestoso (11:00)
Исполнители:
Yuja Wang - piano
Simon Bolivar Symphony Orchestra of Venezuela
Gustavo Dudamel

Лог создания рипа

Exact Audio Copy V0.99 prebeta 5 from 4. May 2009
Отчёт EAC об извлечении, выполненном 15. июня 2014, 0:20
Yuja Wang / Piano Concertos · Klavierkonzerte
Дисковод: ASUS SBC-06D1S-U Adapter: 3 ID: 0
Режим чтения : Достоверность
Использование точного потока : Да
Отключение кэша аудио : Да
Использование указателей C2 : Нет
Коррекция смещения при чтении : 102
Способность читать области Lead-in и Lead-out : Нет
Заполнение пропущенных сэмплов тишиной : Да
Удаление блоков с тишиной в начале и конце : Нет
При вычислениях CRC использовались нулевые сэмплы : Да
Интерфейс : Встроенный Win32-интерфейс для Win NT/2000
Выходной формат : Пользовательский кодировщик
Выбранный битрейт : 768 kBit/s
Качество : Высокий
Добавление ID3-тэга : Нет
Утилита сжатия : C:\Program Files (x86)\Exact Audio Copy\Flac\flac.exe
Дополнительные параметры : -6 -V -T "ARTIST=%a" -T "TITLE=%t" -T "ALBUM=%g" -T "DATE=%y" -T "TRACKNUMBER=%n" -T "GENRE=%m" -T "COMMENT=%e" %s -o %d
TOC извлечённого CD
Трек | Старт | Длительность | Начальный сектор | Конечный сектор
---------------------------------------------------------------------
1 | 0:00.00 | 15:50.21 | 0 | 71270
2 | 15:50.21 | 10:38.22 | 71271 | 119142
3 | 26:28.43 | 14:19.59 | 119143 | 183626
4 | 40:48.27 | 11:01.60 | 183627 | 233261
5 | 51:50.12 | 2:21.50 | 233262 | 243886
6 | 54:11.62 | 6:34.65 | 243887 | 273501
7 | 60:46.52 | 11:00.04 | 273502 | 323005
Характеристики диапазона извлечения и сообщения об ошибках
Выбранный диапазон
Имя файла F:\EAC_AdvantiX\PART2\Yuja Wang - Piano Concertos Rachmaninov Prokofiev\Y.Wang - Piano Concertos Rachmaninov Prokofiev.wav
Пиковый уровень 99.5 %
Качество диапазона 100.0 %
CRC копии 373002A2
Копирование... OK
Ошибок не произошло
AccurateRip: сводка
Трек 1 точность не определена (достоверность 20) [7AA60046], AccurateRip вернул [CCE23234]
Трек 2 точность не определена (достоверность 19) [2A42923F], AccurateRip вернул [DB136542]
Трек 3 точность не определена (достоверность 19) [79B171D0], AccurateRip вернул [C062AB22]
Трек 4 точность не определена (достоверность 20) [5B4091FB], AccurateRip вернул [8F42F1D0]
Трек 5 точность не определена (достоверность 20) [1B758ABC], AccurateRip вернул [C84E0EB1]
Трек 6 точность не определена (достоверность 20) [62303B2F], AccurateRip вернул [C4D4DCBB]
Трек 7 точность не определена (достоверность 19) [A9C9E5B5], AccurateRip вернул [826C82DA]
Ни один трек не прошёл проверки на точность
В вашей базе может быть иной вариант штамповки диска
Конец отчёта

Лог проверки качества


Скриншот спектра частот

[teatrix.ru].t18745.torrent 
Торрент: Зарегистрирован [ 2016-03-17 00:23 ] · 3279D8818844F175CA5B68AF51BBD46B35459453

Скачать .torrent

Скачать

13 KB

Статус: проверено
Скачан: 0 раз
Размер: 285 MB
terms.php



Быстрый ответ

Имя:

      
Для отправки сообщений необходимо включить JavaScript
Показать сообщения:    

Текущее время: 10-Дек 08:02

Часовой пояс: UTC + 3


Вы можете начинать темы
Вы можете отвечать на сообщения
Вы не можете редактировать свои сообщения
Вы не можете удалять свои сообщения
Вы не можете голосовать в опросах
Вы не можете прикреплять файлы к сообщениям
Вы можете скачивать файлы