Йогалатес (1-2 сезон) [2011-2012, Йогалатес, пилатес, SATRip, RUS]


Статистика раздачи [Обновить пиров]
Размер:  12.38 GB   |    Зарегистрирован:  8 месяцев 17 дней   |    Скачан:  1 раз

Полного источника не было: 4 месяца 4 дня

Личеров:  3  [  0 KB/s  ]   Подробная статистика пиров
 
   
 
 
 

[Цитировать]

Йогалатес с Аленой Мордовиной (1-2 сезон)
Страна: Россия
Тематика: Йогалатес, пилатес
Тип раздаваемого материала: Видеоуроки
Продолжительность:
1 сезон: 24 × 00:39:00
2 сезон: 15 × 00:50:00
Язык: Русский
Перевод: Не требуется
Год выпуска: 2011-2012
Описание: Онлайн-занятия «Йогалатес» Алены Мордовиной построены на элементах йоги, пилатеса и суставной гимнастики. Комбинация разных режимов дыхания и интенсивности тренировки позволяет укрепить мышцы. Регулярные видеозанятия лечебной гимнастикой «Йогалатес» помогут вам поддерживать в порядке свой позвоночник и суставы, улучшить здоровье и чувствовать себя хорошо каждый день. Программа подходит для всех уровней подготовки и любого возраста!
Качество: WEBRip
1 сезон
Формат: FLV
Видео кодек: H.264
Аудио кодек: AAC
Видео: AVC, 480×352 (1.36:1), 450 кбит/сек, 30 fps
Аудио: AAC, 94.5 кбит/с, 44.1 kHz, 2 ch

MediaInfo

General
Complete name : G:\JV\Йогалатес с Аленой Мордовиной\1 сезон\01. Сурья Намаскар.flv
Format : Flash Video
File size : 158 MiB
Duration : 39mn 0s
Overall bit rate : 567 Kbps
Tagging application : Zencoder
Video
Format : AVC
Format/Info : Advanced Video Codec
Format profile : Baseline@L3.0
Format settings, CABAC : No
Format settings, ReFrames : 1 frame
Codec ID : 7
Duration : 39mn 0s
Bit rate : 450 Kbps
Width : 480 pixels
Height : 352 pixels
Display aspect ratio : 4:3
Frame rate mode : Constant
Frame rate : 30.000 fps
Color space : YUV
Chroma subsampling : 4:2:0
Bit depth : 8 bits
Scan type : Progressive
Bits/(Pixel*Frame) : 0.089
Stream size : 129 MiB (82%)
Writing library : Zencoder Video Encoding System
Audio
Format : AAC
Format/Info : Advanced Audio Codec
Format profile : LC
Codec ID : 10
Duration : 39mn 0s
Bit rate : 94.5 Kbps
Channel(s) : 2 channels
Channel positions : Front: L R
Sampling rate : 44.1 KHz
Compression mode : Lossy
Stream size : 28.0 MiB (18%)
2 сезон
Формат: MP4
Видео кодек: H.264
Аудио кодек: AAC
Видео: AVC, 720×576 (1.25:1), 1500 кбит/сек, 50 fps
Аудио: AAC, 157 кбит/с, 48.0 KHz, 2 ch

MediaInfo

General
Complete name : G:\JV\Йога\Йогалатес с Аленой Мордовиной\2 сезон\01. Форсированные и восстанавливающие типы дыхания.mp4
Format : MPEG-4
Format profile : Base Media / Version 2
Codec ID : mp42
File size : 594 MiB
Duration : 50mn 0s
Overall bit rate mode : Variable
Overall bit rate : 1 662 Kbps
Encoded date : UTC 2012-09-05 00:33:39
Tagged date : UTC 2012-09-05 00:33:39
Video
ID : 1
Format : AVC
Format/Info : Advanced Video Codec
Format profile : High@L3.2
Format settings, CABAC : Yes
Format settings, ReFrames : 2 frames
Codec ID : avc1
Codec ID/Info : Advanced Video Coding
Duration : 50mn 0s
Bit rate mode : Constant
Bit rate : 1 500 Kbps
Width : 720 pixels
Height : 576 pixels
Display aspect ratio : 4:3
Frame rate mode : Constant
Frame rate : 50.000 fps
Original frame rate : 25.000 fps
Standard : PAL
Color space : YUV
Chroma subsampling : 4:2:0
Bit depth : 8 bits
Scan type : Interlaced
Bits/(Pixel*Frame) : 0.072
Stream size : 536 MiB (90%)
Language : English
Encoded date : UTC 2012-09-05 00:33:39
Tagged date : UTC 2012-09-05 00:33:39
Color primaries : BT.601 PAL
Transfer characteristics : BT.470 System B, BT.470 System G
Matrix coefficients : BT.601
Audio
ID : 2
Format : AAC
Format/Info : Advanced Audio Codec
Format profile : LC
Codec ID : 40
Duration : 50mn 0s
Bit rate mode : Variable
Bit rate : 157 Kbps
Maximum bit rate : 241 Kbps
Channel(s) : 2 channels
Channel positions : Front: L R
Sampling rate : 48.0 KHz
Compression mode : Lossy
Stream size : 56.3 MiB (9%)
Language : English
Encoded date : UTC 2012-09-05 00:33:39
Tagged date : UTC 2012-09-05 00:33:39

Скриншоты

1 сезон


2 сезон

[teatrix.ru].t18752.torrent 
Торрент: Зарегистрирован [ 2016-03-18 11:59 ] · 486A9C5E936154EF58848CDC39D6DB667FCBB9AC

Скачать .torrent

Скачать

36 KB

Статус: проверено
Скачан: 1 раз
Размер: 12.38 GB
terms.php



Быстрый ответ

Имя:

      
Для отправки сообщений необходимо включить JavaScript
Показать сообщения:    

Текущее время: 05-Дек 03:28

Часовой пояс: UTC + 3


Вы можете начинать темы
Вы можете отвечать на сообщения
Вы не можете редактировать свои сообщения
Вы не можете удалять свои сообщения
Вы не можете голосовать в опросах
Вы не можете прикреплять файлы к сообщениям
Вы можете скачивать файлы